Welcome Guest ( Log In | Register )

> Releases Upload / Добавление релизов

Добавить релиз тут / Click here to add release
Рекомендованные обменники / Recommended file shares

> Victorius - To The Death [ep] (2018), Heavy Metal (D6)
post Jun 21 2018, 23:23:26
Post #1

Serial Uploader
Group Icon
Group: V.I.P
Posts: 32,856
Releases: 31152
From: Lithuania
On Forums: 10 years 1 month
Thanks: 356893 time(s)
Lithuania


(IMG:http://metalarea.org/images/audiocovers/2018_Jun/acov_tid307409_thumb.jpg)

*Artist: Victorius
*Album: To The Death [ep]
*Year: 2018
*Genre: Heavy Metal
*Country: United Kingdom (IMG:http://metalarea.org/forum/style_images/flags/United%20Kingdom.png)
*Format: mp3@CBR320kbps
*Size: 79MB

Tracklist:
01. Breaking Down the Walls
02. Silver Bullet
03. Prepare to Rock
04. To the Death
05. Rise from the Flames
******************************
Total playing time: 34:28



Technical info
(IMG:http://metalarea.org/images/spectrogram/2018_Jun/d592e513a7253b277cf129b2a019ec79.png)
Input File: 02. Silver Bullet.mp3
Channels : 2
Sample Rate : 44100
Precision : 16-bit
Duration : 00:05:18.27 = 14035707 samples = 23870.2 CDDA sectors
File Size : 12.7M
Bit Rate : 320k
Sample Encoding: MPEG audio (layer I, II or III)
Comments :
Title=Silver Bullet
Artist=Victorius
Album=To the Death
Tracknumber=2/5
Year=2018



Register


Go to the top of the page
  Insert nick Quick quote
+Quote Post
 
Start new topic
Replies (1 - 2)
post Jun 23 2018, 21:05:14
Post #2

MDM-Thrash Metal
**************
Group: Металариец
Posts: 6,879
Releases: 412
From: Одесса
On Forums: 10 years 11 months
Thanks: 13127 time(s)
Ukraine


Register
Go to the top of the page
  Insert nick Quick quote
+Quote Post
post Jun 30 2018, 15:48:19
Post #3

Перевозчик
**************
Group: Металариец
Posts: 2,739
Releases: 0
On Forums: 10 years 1 week
Thanks: 563 time(s)
Russian Federation




Местами авангард и панкуха. Но превью почему-то напомнило отечественную группу Эпатаж.
Go to the top of the page
  Insert nick Quick quote
+Quote Post

Reply to this topicStart new topic
2 User(s) are reading this topic (2 Guests and 0 Anonymous Users)
0 Members:

 



- Lo-Fi Version Support form
Copyrights and abuse reports form
Time is now: 18th July 2018 - 15:31:22