Welcome Guest ( Log In | Register )

> Aexylium - Tales From This Land (2018), Folk Metal
post Jun 21 2018, 23:56:32
Post #1

Serial Uploader
Group Icon
Group: V.I.P
Posts: 33,147
Releases: 31431
From: Lithuania
On Forums: 10 years 4 months
Thanks: 359372 time(s)
Lithuania


(IMG:http://metalarea.org/images/audiocovers/2018_Jun/acov_tid307410_thumb.jpg)

*Artist: Aexylium
*Album: Tales From This Land
*Year: 2018
*Genre: Folk Metal
*Country: Italy (IMG:http://metalarea.org/forum/style_images/flags/Italy.png)
*Format: mp3@CBR320kbps
*Size: 94MB

Tracklist:
01. Prelude to a Journey
02. Black Flag
03. Into the Jaws of Fenrir
04. Aexylium
05. My Favourite Nightmare
06. Banshee
07. Tales from Nowhere
08. Revive the Village
09. The Blind Crow
10. Judas' Revenge
11. Radagast
******************************
Total playing time: 41:03



Technical info
(IMG:http://metalarea.org/images/spectrogram/2018_Jun/07eae9a68faea289eebb0cd5072e1c55.png)
Input File: 02. Black Flag.mp3
Channels : 2
Sample Rate : 44100
Precision : 16-bit
Duration : 00:03:28.00 = 9172844 samples = 15600.1 CDDA sectors
File Size : 8.32M
Bit Rate : 320k
Sample Encoding: MPEG audio (layer I, II or III)
Comments :
Title=Black Flag
Artist=Aexylium
Album=Tales from This Land
Tracknumber=2/11
Year=2018



Register


Go to the top of the page
  Insert nick Quick quote
+Quote Post
 
Start new topic
Replies (1 - 2)
post Jun 22 2018, 08:41:53
Post #2

Девять Литров
*********
Group: Металариец
Posts: 976
Releases: 37
From: великий город Питер
On Forums: 12 years 10 months
Thanks: 1788 time(s)
Russian Federation




Thanks:
(1) Orkkh,
Go to the top of the page
  Insert nick Quick quote
+Quote Post
post Jun 22 2018, 09:13:38
Post #3

hearer & reader
**************
Group: Металариец
Posts: 6,981
Releases: 89
From: Moscow
On Forums: 11 years 1 month
Thanks: 6695 time(s)
Russian Federation



ха
А вокалист у них никакой.
Go to the top of the page
  Insert nick Quick quote
+Quote Post

Reply to this topicStart new topic
2 User(s) are reading this topic (2 Guests and 0 Anonymous Users)
0 Members:

 



- Lo-Fi Version Support form
Copyrights and abuse reports form
Time is now: 23rd October 2018 - 10:28:07