Welcome Guest ( Log In | Register )

 
Reply to this topicStart new topic
> Moe Secretion & Favorite 水 - Deep Censorship [split] (2018), Goregrind | Experimental (D5)
post Jun 22 2018, 13:36:39
Post #1

Serial Uploader
Group Icon
Group: V.I.P
Posts: 33,121
Releases: 31406
From: Lithuania
On Forums: 10 years 4 months
Thanks: 359192 time(s)
Lithuania


(IMG:https://metalarea.org/images/audiocovers/2018_Jun/acov_tid307418_thumb.jpg)

*Artist: Moe Secretion & Favorite 水
*Album: Deep Censorship [split]
*Year: 2018
*Genre: Goregrind | Experimental
*Country: Canada (IMG:https://metalarea.org/forum/style_images/flags/Canada.png) | Canada (IMG:https://metalarea.org/forum/style_images/flags/Canada.png)
*Format: mp3@CBR320kbps
*Size: 11MB

Tracklist:
Moe Secretion:
01. Single-Panel Hyper-Detail 01:02
02. Ridiculous Doujinshi 01:09
Favorite 水:
03. Tiny Nails 01:16
04. HaHa 01:36
******************************
Total playing time: 5:03




(IMG:https://metalarea.org/images/youtube.png)

Technical info
(IMG:https://metalarea.org/images/spectrogram/2018_Jun/b4c114d8490322cc1fb8cc74e30f09c1.png)
Input File: 02. Ridiculous Doujinshi.mp3
Channels : 2
Sample Rate : 44100
Precision : 16-bit
Duration : 00:01:09.99 = 3086339 samples = 5248.88 CDDA sectors
File Size : 2.85M
Bit Rate : 326k
Sample Encoding: MPEG audio (layer I, II or III)
Comments :
Title=Moe Secretion - Ridiculous Doujinshi
Artist=Favorite 水 / Moe Secretion
Album=Deep Censorship
Tracknumber=2
Year=2018



Register


Thanks:
Go to the top of the page
  Insert nick Quick quote
+Quote Post

Reply to this topicStart new topic
2 User(s) are reading this topic (2 Guests and 0 Anonymous Users)
0 Members:

 



- Lo-Fi Version Support form
Copyrights and abuse reports form
Time is now: 17th October 2018 - 03:51:46