Welcome Guest ( Log In | Register )

> И неформату есть предел.

Рэп/хип-хоп/шансон/поп удаляются. Для них есть свои порталы.

> Front Line Assembly - Warmech (2018), Electronic/Industrial/ebm (D10)
post Jun 22 2018, 19:43:42
Post #1

sequensolog
**********
Group: Металариец
Posts: 1,275
Releases: 14
On Forums: 5 months 4 weeks
Thanks: 478 time(s)
Russian Federation


(IMG:https://metalarea.org/images/audiocovers/2018_Jun/acov_tid307423_thumb.jpg)

*Artist: Front Line Assembly
*Album: Warmech
*Year: 2018
*Genre: Electronic/Industrial/ebm
*Country: Canada (IMG:https://metalarea.org/forum/style_images/flags/Canada.png)
*Format: mp3@CBR320kbps
*Size: 167MB

Tracklist:
1.Mechvirus 06:33
2.Anthropod 05:45
3.Heatmap 06:21
4.The Imminent 04:54
5.Force Carrier 05:17
6.Meteorfall 06:49
7.Molotov 05:30
8.Rip Sensor 07:31
9.The Eminent 06:11
10.Mechanism 06:07
11.Earthriser 05:48
12.Creator 06:35
******************************
Total playing time: 1:13:21



Technical info
(IMG:https://metalarea.org/images/spectrogram/2018_Jun/c021d2d8df6a710f6fbe3c3472b5b428.png)
Input File: 02 - Anthropod.mp3
Channels : 2
Sample Rate : 44100
Precision : 16-bit
Duration : 00:05:45.20 = 15223496 samples = 25890.3 CDDA sectors
File Size : 13.8M
Bit Rate : 320k
Sample Encoding: MPEG audio (layer I, II or III)
Comments :
Title=Anthropod
Artist=Front Line Assembly
Album=Warmech
Tracknumber=2/12
Genre=Electro/Industrial
Discnumber=1/1



Register


Go to the top of the page
  Insert nick Quick quote
+Quote Post
 
Start new topic
Replies (1 - 3)
post Jul 5 2018, 22:58:39
Post #2
BAN
Banned till
Aug 5 2018, 14:02:28



Очень хорошо (IMG:style_emoticons/default/smile3.gif)
Go to the top of the page
  Insert nick Quick quote
+Quote Post
post Jul 5 2018, 23:44:49
Post #3
BAN
Banned till
Aug 5 2018, 14:03:13



ослина, дискографию качай, а потом уже хорошокать будешь

люди, кстати, работающие целую вечность с Fear Factory
Go to the top of the page
  Insert nick Quick quote
+Quote Post
post Jul 5 2018, 23:58:35
Post #4
BAN
Banned till
Aug 5 2018, 14:03:13



как и Carbon 12
Go to the top of the page
  Insert nick Quick quote
+Quote Post

Reply to this topicStart new topic
2 User(s) are reading this topic (2 Guests and 0 Anonymous Users)
0 Members:

 



- Lo-Fi Version Support form
Copyrights and abuse reports form
Time is now: 20th July 2018 - 11:30:00