Welcome Guest ( Log In | Register )

> Nebiros - Draft Versions For Gods Of Dust [demo] (1999), Black Metal (D)
post Jun 22 2018, 21:23:25
Post #1
BAN
Banned till
Jun 3 2020, 18:40:35



(IMG:https://metalarea.org/images/audiocovers/2018_Jun/acov_tid307425_thumb.jpg)

*Artist: Nebiros
*Album: Draft Versions For Gods Of Dust [demo]
*Year: 1999
*Genre: Black Metal
*Country: France (IMG:https://metalarea.org/forum/style_images/flags/France.png)
*Format: mp3@VBR258kbps
*Size: 45MB

Tracklist:
01.Naberius March
02.Chrysalid
03.Ashes Horizon - Gods of Dust
04.A Blackstorm in My Soul
******************************
Total playing time: 24:17



Technical info
(IMG:https://metalarea.org/images/spectrogram/2018_Jun/af387b49674ab8a508b9bf26ab006e5a.png)
Input File: 02-Chrysalid.mp3
Channels : 2
Sample Rate : 44100
Precision : 16-bit
Duration : 00:08:12.04 = 21699052 samples = 36903.1 CDDA sectors
File Size : 16.5M
Bit Rate : 269k
Sample Encoding: MPEG audio (layer I, II or III)
Comments :
Title=Chrysalid
Artist=Nebiros
Album=Draft Versions for Gods of Dust
Tracknumber=2
Year=1999
Genre=Black Metal



Register


Go to the top of the page
  Insert nick Quick quote
+Quote Post
 
Start new topic
Replies (1 - 7)
post Jun 23 2018, 13:06:19
Post #2

Дети, блуждающие в Пустошах, возрадуйтесь! Атом даёт вам шанс на спасение!
********
Group: Металариец
Posts: 845
Releases: 147
From: Одеса
On Forums: 6 years 4 months
Thanks: 2238 time(s)
Ukraine


Огроммное СПС! наконец-то эта банда добита до конца, и музыка как всегда на высоте...


Thanks:
Go to the top of the page
  Insert nick Quick quote
+Quote Post
post Jun 23 2018, 18:35:08
Post #3

Четыре Литра
****
Group: Металариец
Posts: 368
Releases: 16
On Forums: 8 years 9 months
Thanks: 1101 time(s)
Unknown


Где же его нарыли то...Круто чье
Go to the top of the page
  Insert nick Quick quote
+Quote Post
post Jun 23 2018, 18:48:34
Post #4

ретроград
**************
Group: Металариец
Posts: 5,068
Releases: 182
On Forums: 12 years 11 months
Thanks: 7657 time(s)
Vatican City


Помнится в 90-х я только мечтал о том, чтоб хоть что-то нарыть из их репертуара)
Go to the top of the page
  Insert nick Quick quote
+Quote Post
post Jun 23 2018, 20:31:01
Post #5

Правь статус, ####!111
**************
Group: Металариец
Posts: 2,459
Releases: 11
From: Canada
On Forums: 12 years 11 months
Thanks: 1639 time(s)
Canada




Thanks:
Go to the top of the page
  Insert nick Quick quote
+Quote Post
post Jun 24 2018, 08:15:38
Post #6

Forever Underground
**************
Group: Металариец
Posts: 7,004
Releases: 0
On Forums: 5 years 1 month
Thanks: 8782 time(s)
Unknown


QUOTE(YDV.SVARTVIND @ Jun 23 2018, 14:06:19) *
Огроммное СПС! наконец-то эта банда добита до конца, и музыка как всегда на высоте...

Definitely agreed! (IMG:style_emoticons/default/true_black.gif)
Go to the top of the page
  Insert nick Quick quote
+Quote Post
post Jul 20 2018, 20:49:33
Post #7

Два Литра
**
Group: Завсегдатай
Posts: 101
Releases: 0
From: Черновцы
On Forums: 11 years 3 months
Thanks: 28 time(s)
Ukraine


Зеркало бы...
Go to the top of the page
  Insert nick Quick quote
+Quote Post
post Sep 21 2018, 09:44:30
Post #8

добрый мизантроп
***********
Group: Металариец
Posts: 1,731
Releases: 0
From: Минск
On Forums: 9 years 6 months
Thanks: 838 time(s)
Madagascar


mirror
Register


Thanks:
Go to the top of the page
  Insert nick Quick quote
+Quote Post

Reply to this topicStart new topic
2 User(s) are reading this topic (2 Guests and 0 Anonymous Users)
0 Members:

 



- Lo-Fi Version Support form
Copyrights and abuse reports form
Time is now: 5th June 2020 - 20:32:02