Welcome Guest ( Log In | Register )

> И неформату есть предел.

Рэп/хип-хоп/шансон/поп удаляются. Для них есть свои порталы.

 
Reply to this topicStart new topic
> Nubiferous - Tira Ibein (2018), Ritual Ambient/Tribal/folk (D4)
post Jun 23 2018, 16:14:11
Post #1

Group: Подсевший
Posts: 43
Releases: 9
From: Краснодар
On Forums: 7 years 11 months
Thanks: 268 time(s)
Russian Federation


(IMG:http://metalarea.org/images/audiocovers/2018_Jun/acov_tid307447_thumb.jpg)

*Artist: Nubiferous
*Album: Tira Ibein
*Year: 2018
*Genre: Ritual Ambient/Tribal/folk
*Country: Russian Federation (IMG:http://metalarea.org/forum/style_images/flags/Russian%20Federation.png)
*Format: mp3@CBR320kbps
*Size: 179MB

Tracklist:
1.Deflexion Of Feral Paths 08:23
2.Grand Sieid Exaltation 05:55
3.Torum Maa 05:04
4.Ongon 05:53
5.Tira Ibein 08:52
6.Sat Menkv 06:53
7.Lekan 06:17
8.Black Owls Of The Woods/Twilight Sleep 16:02
9.Oneiromantia 12:48
******************************
Total playing time: 1:16:07



Technical info
(IMG:http://metalarea.org/images/spectrogram/2018_Jun/78dd79470491b4e5553bf81686e06887.png)
Input File: 03] Torum Maa.wav
Channels : 2
Sample Rate : 44100
Precision : 16-bit
Duration : 00:05:04.49 = 13428083 samples = 22836.9 CDDA sectors
File Size : 53.7M
Bit Rate : 1.41M
Sample Encoding: 16-bit Signed Integer PCM



Register


Thanks:
Go to the top of the page
  Insert nick Quick quote
+Quote Post

Reply to this topicStart new topic
1 User(s) are reading this topic (1 Guests and 0 Anonymous Users)
0 Members:

 



- Lo-Fi Version Support form
Copyrights and abuse reports form
Time is now: 14th November 2018 - 07:29:06