Welcome Guest ( Log In | Register )

> И неформату есть предел.

Рэп/хип-хоп/шансон/поп удаляются. Для них есть свои порталы.

 
Reply to this topicStart new topic
> Sol Mortuus - Extinction (2015), Ritual Ambient
post Jun 23 2018, 19:05:22
Post #1

Group: Подсевший
Posts: 42
Releases: 9
From: Краснодар
On Forums: 7 years 9 months
Thanks: 265 time(s)
Russian Federation


(IMG:http://metalarea.org/images/audiocovers/2018_Jun/acov_tid307453_thumb.jpg)

*Artist: Sol Mortuus
*Album: Extinction
*Year: 2015
*Genre: Ritual Ambient
*Country: Russian Federation (IMG:http://metalarea.org/forum/style_images/flags/Russian%20Federation.png)
*Format: mp3@CBR320kbps
*Size: 133MB

Tracklist:
1.Mother Of Windless Land 07:39
2.Stars That Have Grown Should Be Covered With Blood 07:35
3.The Great Wasteland Where Drop Of Water Is More Longing Than Bear Meat In Famine Days 11:12
4.Three Skies Impossible To See 07:12
5.Arkaim 09:51
6.The One Who Has Never Seen The Dawn 08:39
7.The Winged Spirit Lifts The Spear 09:00
******************************
Total playing time: 1:01:08



Extended info
Project by Kein (ex Thy Repentance,Scratching Soil)


Technical info
(IMG:http://metalarea.org/images/spectrogram/2018_Jun/1765549fb862548b0d0a7f95ab41732a.png)
Input File: 02-Stars That Have Grown Should Be Covered With Blood.mp3
Channels : 2
Sample Rate : 44100
Precision : 16-bit
Duration : 00:07:35.00 = 20065500 samples = 34125 CDDA sectors
File Size : 18.2M
Bit Rate : 320k
Sample Encoding: MPEG audio (layer I, II or III)
Comments :
Title=Stars That Have Grown Should Be Covered With Blood
Artist=Sol Mortuus
Album=Extinction
Tracknumber=2/7
Year=2015
Genre=Ritual Ambient



Register


Go to the top of the page
  Insert nick Quick quote
+Quote Post

Reply to this topicStart new topic
1 User(s) are reading this topic (1 Guests and 0 Anonymous Users)
0 Members:

 



- Lo-Fi Version Support form
Copyrights and abuse reports form
Time is now: 20th September 2018 - 19:03:35