Welcome Guest ( Log In | Register )

> И неформату есть предел.

Рэп/хип-хоп/шансон/поп удаляются. Для них есть свои порталы.

 
Reply to this topicStart new topic
> Sol Mortuus - Ur-Ala (2017), Ritual Ambient
post Jun 23 2018, 19:18:21
Post #1

Group: Подсевший
Posts: 37
Releases: 9
From: Краснодар
On Forums: 7 years 7 months
Thanks: 253 time(s)
Russian Federation


(IMG:http://metalarea.org/images/audiocovers/2018_Jun/acov_tid307454_thumb.jpg)

*Artist: Sol Mortuus
*Album: Ur-Ala
*Year: 2017
*Genre: Ritual Ambient
*Country: Russian Federation (IMG:http://metalarea.org/forum/style_images/flags/Russian%20Federation.png)
*Format: mp3@CBR320kbps
*Size: 163MB

Tracklist:
1.Holatchakhl 07:57
2.Mudor - Kuz 08:47
3.Ur - Ala 09:06
4.Hotal - Ekva 07:17
5.Alangasar 09:43
6.When the heavens were pure as snow 10:23
7.Son of Torum 12:33
8.Oica - Ner 08:11
******************************
Total playing time: 1:13:57



Extended info
Project by Kein (ex Thy Repentance,Scratching Soil)


Technical info
(IMG:http://metalarea.org/images/spectrogram/2018_Jun/c6167f3645452911b3f35cb56774a0d8.png)
Input File: 04-Hotal-Ekva.mp3
Channels : 2
Sample Rate : 44100
Precision : 16-bit
Duration : 00:07:17.91 = 19311655 samples = 32843 CDDA sectors
File Size : 17.5M
Bit Rate : 320k
Sample Encoding: MPEG audio (layer I, II or III)
Comments :
Title=Hotal-Ekva
Artist=Sol Mortuus
Album=Ur-Ala
Tracknumber=4/8
Year=2017
Genre=Ritual Ambient



Register


Go to the top of the page
  Insert nick Quick quote
+Quote Post

Reply to this topicStart new topic
2 User(s) are reading this topic (2 Guests and 0 Anonymous Users)
0 Members:

 



- Lo-Fi Version Support form
Copyrights and abuse reports form
Time is now: 20th July 2018 - 11:22:36