Welcome Guest ( Log In | Register )

> И неформату есть предел.

Рэп/хип-хоп/шансон/поп удаляются. Для них есть свои порталы.

> Алиса - Танцевать (2001), Rock (D23)
post Jun 25 2018, 19:51:54
Post #1
BAN
Banned till
Aug 5 2018, 14:02:28



(IMG:http://metalarea.org/images/audiocovers/2018_Jun/acov_tid307516.jpg)

*Artist: Алиса
*Album: Танцевать
*Year: 2001
*Genre: Rock
*Country: Russian Federation (IMG:http://metalarea.org/forum/style_images/flags/Russian%20Federation.png)
*Format: mp3@CBR320kbps
*Size: 114MB

Tracklist:
01. Гость
02. Веретено
03. Горизонт
04. Знаки (осень)
05. Танцевать
06. Каждую ночь
07. Понедельник
08. Бродячий цирк
09. Доброе утро
10. Посторонний
11. Где твой билет?
12. Путь в сторону леса
******************************
Total playing time: 44:07

(IMG:http://metalarea.org/images/youtube.png)

Technical info
(IMG:http://metalarea.org/images/spectrogram/2018_Jun/d8f80898d9bd5da00596146737e9df85.png)
Input File: 08 - Бродячий цирк.mp3
Channels : 2
Sample Rate : 44100
Precision : 16-bit
Duration : 00:04:30.51 = 11929579 samples = 20288.4 CDDA sectors
File Size : 12.4M
Bit Rate : 367k
Sample Encoding: MPEG audio (layer I, II or III)
Comments :
Title=Бродячий цирк
Artist=Алиса
Album=Танцевать
Tracknumber=08/12
Year=2001
Genre=Rock



Register


Thanks:
(1) Aresson,
Go to the top of the page
  Insert nick Quick quote
+Quote Post
 
Start new topic
Replies (1 - 3)
post Jun 26 2018, 06:46:47
Post #2
BAN
Banned till
Aug 5 2018, 14:02:28



@320

Register


Бродячий Цирк и заежженное Веретено - самые сильные песни отсюда, но и остальной материал не так уж плох (особенно по сравнению с львиной долей текущего творчества).
Go to the top of the page
  Insert nick Quick quote
+Quote Post
post Jun 26 2018, 10:17:38
Post #3
BAN
Banned till
Aug 3 2018, 22:11:03



Какие классные темы поднимает восьмидесятый, благодарю! (IMG:style_emoticons/default/9.gif) В очередной раз просмотрю фильмец «Гостья из будущего», ностальжи!


Thanks:
Go to the top of the page
  Insert nick Quick quote
+Quote Post
post Jun 27 2018, 19:21:17
Post #4
BAN
Banned till
Aug 5 2018, 14:02:28



Brutal Hero, базлани че нить про этот альбом. Нравится он те?
Go to the top of the page
  Insert nick Quick quote
+Quote Post

Reply to this topicStart new topic
2 User(s) are reading this topic (2 Guests and 0 Anonymous Users)
0 Members:

 



- Lo-Fi Version Support form
Copyrights and abuse reports form
Time is now: 20th July 2018 - 11:31:07