Welcome Guest ( Log In | Register )

> И неформату есть предел.

Рэп/хип-хоп/шансон/поп удаляются. Для них есть свои порталы.

> Алиса - Сейчас Позднее, Чем Ты Думаешь (2003), Rock (D23)
post Jun 25 2018, 20:47:29
Post #1
BAN
Banned till
Aug 5 2018, 14:02:28



(IMG:http://metalarea.org/images/audiocovers/2018_Jun/acov_tid307517_thumb.jpg)

*Artist: Алиса
*Album: Сейчас Позднее, Чем Ты Думаешь
*Year: 2003
*Genre: Rock
*Country: Russian Federation (IMG:http://metalarea.org/forum/style_images/flags/Russian%20Federation.png)
*Format: mp3@CBR320kbps
*Size: 134MB

Tracklist:
01. Родина
02. Небо славян
03. Непокорные
04. Без креста
05. Грязь
06. Всадники
07. Антихрист
08. Инок, воин и шут
09. Званые
10. Душа
******************************
Total playing time: 50:53

(IMG:http://metalarea.org/images/youtube.png)

Technical info
(IMG:http://metalarea.org/images/spectrogram/2018_Jun/ab27ebbba4e2e3bad7a677d000d9b707.png)
Input File: 03 - Непокорные.mp3
Channels : 2
Sample Rate : 44100
Precision : 16-bit
Duration : 00:03:53.50 = 10297130 samples = 17512.1 CDDA sectors
File Size : 11.6M
Bit Rate : 396k
Sample Encoding: MPEG audio (layer I, II or III)
Comments :
Title=Непокорные
Artist=Алиса
Album=Сейчас позднее, чем ты думаешь
Tracknumber=03/09
Year=2003
Genre=Rock



Register


Thanks:
Go to the top of the page
  Insert nick Quick quote
+Quote Post
2 Pages V  < 1 2  
Start new topic
Replies (30 - 31)
post Jun 29 2018, 07:49:07
Post #31
BAN
Banned till
Sep 15 2018, 04:37:27



ЦИТАТА(BrutalHero @ Jun 28 2018, 21:50:03) *
я начинаю интеллектуально деградировать

(IMG:style_emoticons/default/1488.gif) 80-й перетроллил главного тролля МА.
Go to the top of the page
  Insert nick Quick quote
+Quote Post
post Jun 29 2018, 08:22:09
Post #32
BAN
Banned till
Aug 5 2018, 14:02:28



ЦИТАТА(6666666 @ Jun 29 2018, 08:34:10) *
Это всегда так от общения с 80-м.


Наш главный интеллектуал видимо ослеп от чтения книг в перерывах на основной работе, что он не допетривает, что тред про Алису и творчество Кинчева, но ему сказать по группе и ее творчеству нечего, вот и панкреатитно поноснул стороннее высказывание с переходом на обсуждение юзеров в своем типичном категоричном стиле. (IMG:style_emoticons/default/1488.gif)

Троллить не ставил целью, просто странно что Брутальный не видит очевидной разницы между "тем" Кинчевым и "этим".
Go to the top of the page
  Insert nick Quick quote
+Quote Post

2 Pages V  < 1 2
Reply to this topicStart new topic
2 User(s) are reading this topic (2 Guests and 0 Anonymous Users)
0 Members:

 



- Lo-Fi Version Support form
Copyrights and abuse reports form
Time is now: 20th July 2018 - 11:24:53