Welcome Guest ( Log In | Register )

> И неформату есть предел.

Рэп/хип-хоп/шансон/поп удаляются. Для них есть свои порталы.

> Nine Inch Nails - Bad Witch (2018), Alternative/Industrial (D13)
post Jun 27 2018, 08:53:07
Post #1

Два Литра
**
Group: Завсегдатай
Posts: 185
Releases: 0
On Forums: 1 year 1 month
Thanks: 68 time(s)
Russian Federation


(IMG:https://metalarea.org/images/audiocovers/2018_Jun/acov_tid307551_thumb.jpg)

*Artist: Nine Inch Nails
*Album: Bad Witch
*Year: 2018
*Genre: Alternative/Industrial
*Country: United States (IMG:https://metalarea.org/forum/style_images/flags/United%20States.png)
*Format: mp3@CBR320kbps
*Size: 70MB

Tracklist:
1. Shit Mirror
2. Ahean of Ourselves
3. Play the Goddamned Part
4. God Break Down the Door
5. I'm Not From This World
6. Over and Out
******************************
Total playing time: 30:15

Technical info
(IMG:https://metalarea.org/images/spectrogram/2018_Jun/cd7d680d97f4505d2bc11b55f8230672.png)
Input File: 02. Ahead Of Ourselves.mp3
Channels : 2
Sample Rate : 44100
Precision : 16-bit
Duration : 00:03:30.55 = 9285387 samples = 15791.5 CDDA sectors
File Size : 8.53M
Bit Rate : 324k
Sample Encoding: MPEG audio (layer I, II or III)
Comments :
Title=Ahead Of Ourselves
Artist=Nine Inch Nails
Album=Bad Witch
Tracknumber=02
Year=2018
Genre=20



Register


Go to the top of the page
  Insert nick Quick quote
+Quote Post
 
Start new topic
Replies (1 - 5)
post Jun 27 2018, 15:07:01
Post #2

Шесть Литров
******
Group: Металариец
Posts: 594
Releases: 0
From: Харьков
On Forums: 8 years 9 months
Thanks: 185 time(s)
Ukraine


Забираю, спасибо. Отличная группа, нравится почти все творчество (причем, не сказал бы, что поздние альбомы чем-то хуже, где-то даже наоборот).
Go to the top of the page
  Insert nick Quick quote
+Quote Post
post Jun 27 2018, 19:34:01
Post #3

Шесть Литров
******
Group: Металариец
Posts: 594
Releases: 0
From: Харьков
On Forums: 8 years 9 months
Thanks: 185 time(s)
Ukraine


Хороший альбом, короткий, но сбалансированный. Лучшие треки: "Play the Goddamned Part"/"God Break Down the Door", напомнившие великолепный посмертный альбом Боуи и "Over and Out", навевающий ассоциации скорее с поздними Radiohead. Первые две вроде как хитовые вещи, сделанные в духе последних ипишек мне не особо запомнились как и атмосферный инструментал "I'm Not From This World". В целом, раскритикованный в свое время "Hesitation Marks" пока кажется интереснее.
Go to the top of the page
  Insert nick Quick quote
+Quote Post
post Jun 27 2018, 19:51:04
Post #4

стазис эпидерсис
***********
Group: Металариец
Posts: 1,849
Releases: 0
On Forums: 2 years 5 months
Thanks: 1158 time(s)
Unknown


ЦИТАТА(Ghostb @ 27th June 2018 - 23:34:01) *
Хороший альбом, короткий, но сбалансированный.

ипишка.
Go to the top of the page
  Insert nick Quick quote
+Quote Post
post Jun 27 2018, 19:57:42
Post #5

Шесть Литров
******
Group: Металариец
Posts: 594
Releases: 0
From: Харьков
On Forums: 8 years 9 months
Thanks: 185 time(s)
Ukraine


ЦИТАТА(garmonbozia @ Jun 27 2018, 21:51:04) *
ипишка

Нет, этот релиз позиционируется как полноформатный, несмотря на длительность всего в 30 минут.


Thanks:
(1) Daale,
Go to the top of the page
  Insert nick Quick quote
+Quote Post
post Jun 30 2018, 15:21:36
Post #6

Detective Godzilla
**************
Group: Металариец
Posts: 2,457
Releases: 168
On Forums: 7 years 5 months
Thanks: 4818 time(s)
Russian Federation


Отличный релиз, подтверждаю
Go to the top of the page
  Insert nick Quick quote
+Quote Post

Reply to this topicStart new topic
2 User(s) are reading this topic (2 Guests and 0 Anonymous Users)
0 Members:

 



- Lo-Fi Version Support form
Copyrights and abuse reports form
Time is now: 20th July 2018 - 11:46:07