Welcome Guest ( Log In | Register )

> И неформату есть предел.

Рэп/хип-хоп/шансон/поп удаляются. Для них есть свои порталы.

 
Reply to this topicStart new topic
> Eendo - Hamin Lahzeh (2016), Gypsy Jazz, Folk, Cabaret, Chanson
post Jun 27 2018, 14:34:48
Post #1


*********
Group: Металариец
Posts: 971
Releases: 186
From: Подмосковье
On Forums: 8 years 11 months
Thanks: 2654 time(s)
Russian Federation


(IMG:http://metalarea.org/images/audiocovers/2018_Jun/acov_tid307563_thumb.jpg)

*Artist: Eendo
*Album: Hamin Lahzeh
*Year: 2016
*Genre: Gypsy Jazz, Folk, Cabaret, Chanson
*Country: United States (IMG:http://metalarea.org/forum/style_images/flags/United%20States.png)
*Format: mp3@CBR320kbps
*Size: 83MB

Tracklist:
1. Vojood-E To 03:58
2. Waltz-E Chaman 04:10
3. ... Vali Man Shaadam 04:08
4. Markaz-E Seghl 03:46
5. Nemidoonam Chera 04:37
6. Bidaad 03:05
7. Bia Bereem 03:04
8. Hanoozam ... 04:02
9. Gham Makhor 03:13
10. Hamin Lahzeh 04:53
******************************
Total playing time: 38:56

(IMG:http://metalarea.org/images/youtube.png)

Technical info
(IMG:http://metalarea.org/images/spectrogram/2018_Jun/29807ad9c4553a483fb2e107eb7e60ae.png)
Input File: 02. Waltz-E Chaman.mp3
Channels : 2
Sample Rate : 44100
Precision : 16-bit
Duration : 00:04:10.69 = 11055341 samples = 18801.6 CDDA sectors
File Size : 10.1M
Bit Rate : 322k
Sample Encoding: MPEG audio (layer I, II or III)
Comments :
Title=Waltz-E Chaman
Artist=Eendo
Album=Hamin Lahzeh
Tracknumber=02
Year=2016
Genre=Cabaret/Chanson/ Klezmer



Register


Thanks:
Go to the top of the page
  Insert nick Quick quote
+Quote Post

Reply to this topicStart new topic
2 User(s) are reading this topic (2 Guests and 0 Anonymous Users)
0 Members:

 



- Lo-Fi Version Support form
Copyrights and abuse reports form
Time is now: 20th July 2018 - 13:10:00