Welcome Guest ( Log In | Register )

> Forum rules / Правила раздела

Here go releases which can't go to New releases forums due lack of information, stolen links or incorrect data and just founded in other sites links with minimum info. Reissue of this releases through Add release form with added/corrected data, info and own links highly welcomed.

Сюда уходят релизы, не пропущенные в основные релизные форумы по причинам отсутствия, недостаточности или неверности/некорректности сопровождающей информации, содержащие ссылки, указывающие на файлы, залитые не автором темы, а так же просто найденные где-то ссылки с минимумом информации. Переоформление тем отсюда через форму Добавления релиза с перезаливкой ссылок крайне приветствуется.

> Esgaroth - The Secret Order (2018), Black Metal (D12)
post Jun 29 2018, 04:47:10
Post #1

Маньяк
**********
Group: Металариец
Posts: 1,419
Releases: 1207
From: Одесса
On Forums: 10 years 4 months
Thanks: 9413 time(s)
Ukraine


(IMG:http://metalarea.org/images/audiocovers/2018_Jun/acov_tid307632_thumb.png)

*Artist: Esgaroth
*Album: The Secret Order
*Year: 2018
*Genre: Black Metal
*Country: United States (IMG:http://metalarea.org/forum/style_images/flags/United%20States.png)
*Format: mp3@CBR320kbps
*Size: 66MB

Tracklist:
1. Forgotten Tales 04:14
2. Dragons Hunger 03:16
3. Mountain Tribe 03:45
4. Memories of Before 02:49
5. Elemental Power 04:11
6. The Secret Order 04:32
7. Ritual Gathering 04:45
******************************
Total playing time: 27:32



Technical info
(IMG:http://metalarea.org/images/spectrogram/2018_Jun/cad68ad2730b29d9a92b7d8708cdedc4.png)
Input File: 01. Forgotten Tales.mp3
Channels : 2
Sample Rate : 48000
Precision : 16-bit
Duration : 00:04:14.19 = 12200976 samples ~ 19064 CDDA sectors
File Size : 10.2M
Bit Rate : 322k
Sample Encoding: MPEG audio (layer I, II or III)
Comments :
Title=Forgotten Tales
Artist=Esgaroth
Album=The Secret Order
Tracknumber=1
Year=2018
Genre=138



Register


Thanks:
Go to the top of the page
  Insert nick Quick quote
+Quote Post
 
Start new topic
Replies (1 - 2)
post Jun 30 2018, 18:42:48
Post #2

Правь статус, ####!111
**************
Group: Металариец
Posts: 2,684
Releases: 0
From: Одесса
On Forums: 10 years 7 months
Thanks: 1070 time(s)
Ukraine


Where did you hear BM?
Go to the top of the page
  Insert nick Quick quote
+Quote Post
post Jul 9 2018, 18:27:57
Post #3

brutalcesar
**************
Group: Металариец
Posts: 17,580
Releases: 67
From: Рязань
On Forums: 9 years 9 months
Thanks: 8850 time(s)
Russian Federation


Клавишный инструментал, не самого высокого полёта...
Go to the top of the page
  Insert nick Quick quote
+Quote Post

Reply to this topicStart new topic
2 User(s) are reading this topic (2 Guests and 0 Anonymous Users)
0 Members:

 



- Lo-Fi Version Support form
Copyrights and abuse reports form
Time is now: 23rd October 2018 - 11:30:44