Welcome Guest ( Log In | Register )

> Barkasth - Decaying (2018), Black Metal
post Jun 29 2018, 07:40:58
Post #1

Аннигилятор пивА
Group Icon
Group: V.I.P
Posts: 52,360
Releases: 16550
From: Koenigsberg - TILZIT
On Forums: 14 years 1 week
Thanks: 365295 time(s)
Russian Federation


(IMG:https://metalarea.org/images/audiocovers/2018_Jun/acov_tid307634_thumb.jpg)

*Artist: Barkasth
*Album: Decaying
*Year: 2018
*Genre: Black Metal
*Country: Ukraine (IMG:https://metalarea.org/forum/style_images/flags/Ukraine.png)
*Format: mp3@CBR320kbps
*Size: 99MB

Tracklist:
01. Begging By Freaks
02. Alone
03. Blood & Flesh
04. Soul Away
05. Decaying
06. Shepherd
07. ...Where Was The Son Of God
******************************
Total playing time: 42:31



Extended info
Arkhonth - guitar/vox
Goreon - guitar/vox
Hagalth - bass
Malet - drums


Technical info
(IMG:https://metalarea.org/images/spectrogram/2018_Jun/abc416038633407a96d9554d1d9ac9f8.png)
Input File: 05. Decaying.mp3
Channels : 2
Sample Rate : 44100
Precision : 16-bit
Duration : 00:05:08.97 = 13625577 samples = 23172.8 CDDA sectors
File Size : 12.4M
Bit Rate : 322k
Sample Encoding: MPEG audio (layer I, II or III)
Comments :
Title=Decaying
Artist=Barkasth
Album=Decaying
Tracknumber=5
Year=2018
Genre=Black Metal



Register


Go to the top of the page
  Insert nick Quick quote
+Quote Post
 
Start new topic
Replies (1 - 8)
post Jun 29 2018, 11:23:52
Post #2

Аннигилятор пивА
Group Icon
Group: V.I.P
Posts: 52,360
Releases: 16550
From: Koenigsberg - TILZIT
On Forums: 14 years 1 week
Thanks: 365295 time(s)
Russian Federation


MIRROR
Register




Go to the top of the page
  Insert nick Quick quote
+Quote Post
post Jun 29 2018, 17:16:39
Post #3

Русь Понад Усе!
**************
Group: Металариец
Posts: 4,294
Releases: 15
From: Украина
On Forums: 12 years 9 months
Thanks: 1707 time(s)
Ukraine


Скажу так на фесте они нас всех разбудили отличная команда, в живую так точно. Завтра кину свою съёмку.
Go to the top of the page
  Insert nick Quick quote
+Quote Post
post Jun 29 2018, 17:22:13
Post #4

Маньяк
**********
Group: Металариец
Posts: 1,235
Releases: 0
From: Barcelona
On Forums: 11 years 1 month
Thanks: 743 time(s)
Spain


ЦИТАТА(recber @ Jun 29 2018, 18:16:39) *
Скажу так на фесте они нас всех разбудили отличная команда, в живую так точно. Завтра кину свою съёмку.

Лучше скажи так что э о вообще за люди
Go to the top of the page
  Insert nick Quick quote
+Quote Post
post Jun 30 2018, 16:15:56
Post #5

Русь Понад Усе!
**************
Group: Металариец
Posts: 4,294
Releases: 15
From: Украина
On Forums: 12 years 9 months
Thanks: 1707 time(s)
Ukraine


ЦИТАТА(M8R8K @ Jun 29 2018, 19:22:13) *
Лучше скажи так что э о вообще за люди


Да все пацаны из Харькова, но молодёжь не из старой тусовки. Ну я про них ничего не слышал (IMG:style_emoticons/default/smile1.gif) а играют очень не дурно.

https://www.youtube.com/watch?v=kAC1okf9Qek
Go to the top of the page
  Insert nick Quick quote
+Quote Post
post Jul 1 2018, 00:13:50
Post #6

Правь статус, ####!111
**************
Group: Металариец
Posts: 2,459
Releases: 11
From: Canada
On Forums: 12 years 11 months
Thanks: 1639 time(s)
Canada




Thanks:
Go to the top of the page
  Insert nick Quick quote
+Quote Post
post Jul 6 2018, 16:36:53
Post #7

my church is black
*********
Group: Металариец
Posts: 958
Releases: 3
On Forums: 2 years 11 months
Thanks: 607 time(s)
Cape Verde


хороший дебют
Go to the top of the page
  Insert nick Quick quote
+Quote Post
post Jul 10 2018, 19:38:39
Post #8

Это просто место… где все подошло к концу.
**************
Group: Металариец
Posts: 5,857
Releases: 0
From: Страны Мамонтов
On Forums: 13 years 3 months
Thanks: 2190 time(s)
Antarctica


Очень годно нарулили, мое почтение
Go to the top of the page
  Insert nick Quick quote
+Quote Post
post Feb 12 2020, 17:06:07
Post #9

Правь статус, ####!111
**************
Group: Металариец
Posts: 2,902
Releases: 0
From: MoscoW
On Forums: 13 years 6 months
Thanks: 2228 time(s)
Russian Federation


Go to the top of the page
  Insert nick Quick quote
+Quote Post

Reply to this topicStart new topic
2 User(s) are reading this topic (2 Guests and 0 Anonymous Users)
0 Members:

 



- Lo-Fi Version Support form
Copyrights and abuse reports form
Time is now: 5th June 2020 - 19:46:33