Welcome Guest ( Log In | Register )

> Releases Upload / Добавление релизов

Добавить релиз тут / Click here to add release
Рекомендованные обменники / Recommended file shares

> Earthgrave - First Snow Of The Final Winter (2018), Melodic Death Metal
post Jun 29 2018, 12:16:32
Post #1

Правь статус, ####!111
**************
Group: Металариец
Posts: 13,636
Releases: 9556
From: Г.Харьков
On Forums: 6 years 2 months
Thanks: 156809 time(s)
Unknown


(IMG:https://metalarea.org/images/audiocovers/2018_Jun/acov_tid307648_thumb.jpg)

*Artist: Earthgrave
*Album: First Snow Of The Final Winter
*Year: 2018
*Genre: Melodic Death Metal
*Country: Finland (IMG:https://metalarea.org/forum/style_images/flags/Finland.png)
*Format: mp3@CBR320kbps
*Size: 81MB

Tracklist:
1. Final Embrace
2. Torn From The Void
3. Funeral Of Gaia
4. My Blood, My Land
5. Forever Winter
6. My Home, My Tomb
7. Bleeding World
8. Buried By Grief
******************************
Total playing time: 35:15




Extended info
Tuomas Virtanen: Guitar & Vocals
Sauli Hiltunen: Guitar
Henry Amberg: Bass
Andras Miklosvari: Keyboards
9: Drums


Technical info
(IMG:https://metalarea.org/images/spectrogram/2018_Jun/d6d0e788ee1f9955ae63c2c3d7393a23.png)
Input File: 02. Torn from the Void.mp3
Channels : 2
Sample Rate : 44100
Precision : 16-bit
Duration : 00:03:16.01 = 8644041 samples = 14700.8 CDDA sectors
File Size : 7.84M
Bit Rate : 320k
Sample Encoding: MPEG audio (layer I, II or III)
Comments :
Title=Torn from the Void
Artist=Earthgrave
Album=First Snow Of The Final Winter
Tracknumber=2
Year=2018



Register


Go to the top of the page
  Insert nick Quick quote
+Quote Post
 
Start new topic
Replies (1 - 2)
post Jun 29 2018, 15:33:10
Post #2

Правь статус, ####!111
**************
Group: Металариец
Posts: 13,636
Releases: 9556
From: Г.Харьков
On Forums: 6 years 2 months
Thanks: 156809 time(s)
Unknown


Register


Go to the top of the page
  Insert nick Quick quote
+Quote Post
post Jul 11 2018, 16:42:43
Post #3

Ъ
**************
Group: Металариец
Posts: 9,090
Releases: 9
On Forums: 9 years 6 months
Thanks: 1726 time(s)
Sweden


Ну так, не самый плохой третьесорт.
Go to the top of the page
  Insert nick Quick quote
+Quote Post

Reply to this topicStart new topic
1 User(s) are reading this topic (1 Guests and 0 Anonymous Users)
0 Members:

 



- Lo-Fi Version Support form
Copyrights and abuse reports form
Time is now: 17th July 2018 - 04:25:36