Welcome Guest ( Log In | Register )

> И неформату есть предел.

Рэп/хип-хоп/шансон/поп удаляются. Для них есть свои порталы.

 
Reply to this topicStart new topic
> Tyketto - Don't Come Easy (1991), Melodic Hard Rock/Aor
post Jun 29 2018, 19:34:26
Post #1

MDM-Thrash Metal
**************
Group: Металариец
Posts: 7,061
Releases: 412
From: Одесса
On Forums: 11 years 1 month
Thanks: 13433 time(s)
Ukraine


(IMG:http://metalarea.org/images/audiocovers/2018_Jun/acov_tid307676_thumb.jpg)

*Artist: Tyketto
*Album: Don't Come Easy
*Year: 1991
*Genre: Melodic Hard Rock/Aor
*Country: United States (IMG:http://metalarea.org/forum/style_images/flags/United%20States.png)
*Format: mp3@CBR320kbps
*Size: 107MB

Tracklist:
1. Forever Young 5:08
2. Wings 4:29
3. Burning Down Inside 4:36
4. Seasons 4:56
5. Standing Alone 5:29
6. Lay Your Body Down 4:46
7. Walk On Fire 5:15
8. Nothing But Love 3:43
9. Strip Me Down 4:05
10.Sail Away 4:29
******************************
Total playing time: 46:56

Technical info
(IMG:http://metalarea.org/images/spectrogram/2018_Jun/c23c0627651fe06fe949dde91e8fc446.png)
Input File: 01_tyketto_forever_young.mp3
Channels : 2
Sample Rate : 44100
Precision : 16-bit
Duration : 00:05:08.17 = 13590429 samples = 23113 CDDA sectors
File Size : 12.3M
Bit Rate : 320k
Sample Encoding: MPEG audio (layer I, II or III)
Comments :
Title=Forever Young
Artist=Tyketto
Album=Don't Come Easy
Tracknumber=1
Year=1991
Genre=Hard Rock



Register


Thanks:
Go to the top of the page
  Insert nick Quick quote
+Quote Post

Reply to this topicStart new topic
1 User(s) are reading this topic (1 Guests and 0 Anonymous Users)
0 Members:

 



- Lo-Fi Version Support form
Copyrights and abuse reports form
Time is now: 18th September 2018 - 21:07:21