Welcome Guest ( Log In | Register )

> Deadflesh - Sic Semper Tyrannis (2017), Old School Death Metal
post Jun 29 2018, 19:59:20
Post #1

Правь статус, ####!111
**************
Group: Металариец
Posts: 19,801
Releases: 13428
From: Г.Харьков
On Forums: 7 years 6 months
Thanks: 232391 time(s)
Unknown


(IMG:https://metalarea.org/images/audiocovers/2018_Jun/acov_tid307677_thumb.jpg)

*Artist: Deadflesh
*Album: Sic Semper Tyrannis
*Year: 2017
*Genre: Old School Death Metal
*Country: Denmark (IMG:https://metalarea.org/forum/style_images/flags/Denmark.png)
*Format: mp3@CBR320kbps
*Size: 100MB

Tracklist:
1. Vanguards
2. Sherman's March
3. Bulldozer of Gore
4. Omega-Hammer
5. Betrayer
6. Iron Mountain
7. Swarmbot Legion
8. Age of Treason
9. Ghost of Napoleon
10. Calm Before the Storm
11. Inzane
12. Nibiru (The Destroyer)
******************************
Total playing time: 43:17



Extended info
Helle Bass
Jimmy Schrøder Drums
Allan Hartvigsøn Vocals, Guitars
Sune Borring Guitars (lead)


Technical info
(IMG:https://metalarea.org/images/spectrogram/2018_Jun/c8b6550a377472538181ac8dd1116f40.png)
Input File: 02 - Bulldozer of Gore.mp3
Channels : 2
Sample Rate : 44100
Precision : 16-bit
Duration : 00:04:20.93 = 11506793 samples = 19569.4 CDDA sectors
File Size : 10.6M
Bit Rate : 325k
Sample Encoding: MPEG audio (layer I, II or III)
Comments :
Title=Bulldozer of Gore
Artist=Deadflesh
Album=Sic Semper Tyrannis
Tracknumber=2/12
Year=2017



Register


Go to the top of the page
  Insert nick Quick quote
+Quote Post
 
Start new topic
Replies (1 - 7)
post Jun 30 2018, 04:14:54
Post #2

Правь статус, ####!111
**************
Group: Металариец
Posts: 19,801
Releases: 13428
From: Г.Харьков
On Forums: 7 years 6 months
Thanks: 232391 time(s)
Unknown


Register


Go to the top of the page
  Insert nick Quick quote
+Quote Post
post Jun 30 2018, 14:00:45
Post #3

A.M.S.G.
**************
Group: Металариец
Posts: 2,496
Releases: 51
From: Припять
On Forums: 11 years 7 months
Thanks: 1594 time(s)
Russian Federation


Обычный Death Metal,слабый даже,никак на Old School Death Metal не тянет.Не понравилось.


Thanks:
(1) ingram,
Go to the top of the page
  Insert nick Quick quote
+Quote Post
post Jun 30 2018, 17:03:28
Post #4

Правь статус, ####!111
**************
Group: Металариец
Posts: 2,756
Releases: 8
From: Dnipro
On Forums: 11 years 4 months
Thanks: 863 time(s)
Ukraine


ЦИТАТА(Anhra Mainyu @ Jun 30 2018, 16:00:45) *
Обычный Death Metal,слабый даже,никак на Old School Death Metal не тянет.Не понравилось.

Да нет, реальный Old School Death Metal, причем достаточно не плохой.


Thanks:
Go to the top of the page
  Insert nick Quick quote
+Quote Post
post Jul 1 2018, 17:34:42
Post #5

Маньяк
**********
Group: Металариец
Posts: 1,015
Releases: 64
On Forums: 12 years 9 months
Thanks: 901 time(s)
Ukraine


Неожиданно, последний альбом Дэдфлешей всплыл в сети (через год после релиза). Слабее чем предыдущий Deadflesh - World War III (2008) но вполне съедобный. И учитывая тот факт, что альбомы они выпускают раз в десять лет и нигде официально их не издают, думаю стоит возрадоваться данному событию (мне уж точно). И запастись терпением в ожидании предыдущего лонгплея, авось кто выложит.

Слушать здесь: http://metal.reactor.cc/post/3557556 (IMG:style_emoticons/default/20.gif)
Go to the top of the page
  Insert nick Quick quote
+Quote Post
post Jul 2 2018, 14:05:13
Post #6

MDM-Thrash Metal
**************
Group: Металариец
Posts: 9,119
Releases: 754
From: Одесса
On Forums: 12 years 3 months
Thanks: 20069 time(s)
Ukraine


Мне тоже пришелся по душе альбом. Среднетемповая, добротная дезяра.


Thanks:
(1) nunim,
Go to the top of the page
  Insert nick Quick quote
+Quote Post
post Aug 11 2018, 12:10:33
Post #7

Old School Metal
**************
Group: Металариец
Posts: 2,652
Releases: 0
From: г. Минск
On Forums: 10 years 8 months
Thanks: 5974 time(s)
Belarus


(IMG:https://metalarea.org/images/audiocovers/2018_Jun/acov_tid307677.jpg)


Lossless: FLAC (tracks)


Register


Thanks:
(2) AHBAnep, nunim,
Go to the top of the page
  Insert nick Quick quote
+Quote Post
post Feb 27 2019, 21:55:47
Post #8

MDM-Thrash Metal
**************
Group: Металариец
Posts: 9,119
Releases: 754
From: Одесса
On Forums: 12 years 3 months
Thanks: 20069 time(s)
Ukraine


Register
Go to the top of the page
  Insert nick Quick quote
+Quote Post

Reply to this topicStart new topic
1 User(s) are reading this topic (1 Guests and 0 Anonymous Users)
0 Members:

 



- Lo-Fi Version Support form
Copyrights and abuse reports form
Time is now: 10th December 2019 - 00:22:14