Welcome Guest ( Log In | Register )

> Obseqvies - The Hours Of My Wake (2018), Funeral Doom Metal
post Jun 30 2018, 11:27:34
Post #1

Аннигилятор пивА
Group Icon
Group: V.I.P
Posts: 49,408
Releases: 15247
From: Koenigsberg - TILZIT
On Forums: 12 years 4 months
Thanks: 332789 time(s)
Russian Federation


(IMG:https://metalarea.org/images/audiocovers/2018_Jun/acov_tid307688_thumb.jpg)

*Artist: Obseqvies
*Album: The Hours Of My Wake
*Year: 2018
*Genre: Funeral Doom Metal
*Country: Finland (IMG:https://metalarea.org/forum/style_images/flags/Finland.png)
*Format: mp3@CBR320kbps
*Size: 135MB

Tracklist:
1. Soloqvam 21:45
2. Dawning 16:55
3. Cold 20:35
******************************
Total playing time: 59:15



Extended info
Debut release from finnish funeral doom metal band Obseqvies.
Black vinyl with gatefold sleeve. Limited to 200 copies.
Artwork from Greek visual artist and singer Gogo Melone (Aeonian Sorrow, Clouds).


Technical info
(IMG:https://metalarea.org/images/spectrogram/2018_Jun/eae1c7b422fb9f2252fc78cca506fccf.png)
Input File: 02. Dawning.mp3
Channels : 2
Sample Rate : 44100
Precision : 16-bit
Duration : 00:00:01.02 = 44762 samples = 76.1259 CDDA sectors
File Size : 40.6M
Bit Rate : 320M
Sample Encoding: MPEG audio (layer I, II or III)
Comments :
Title=Dawning
Artist=Obseqvies
Album=The Hours Of My Wake
Tracknumber=2
Year=2018-18-20



Register


Go to the top of the page
  Insert nick Quick quote
+Quote Post
 
Start new topic
Replies (1 - 4)
post Jul 1 2018, 05:05:35
Post #2

Аннигилятор пивА
Group Icon
Group: V.I.P
Posts: 49,408
Releases: 15247
From: Koenigsberg - TILZIT
On Forums: 12 years 4 months
Thanks: 332789 time(s)
Russian Federation


Sounds like finnish doom pioneers Shape of Despair.

MIRROR
Register



Go to the top of the page
  Insert nick Quick quote
+Quote Post
post Jul 1 2018, 12:03:50
Post #3

Самый Тихий Час
**************
Group: Металариец
Posts: 5,603
Releases: 0
On Forums: 8 years 11 months
Thanks: 2436 time(s)
Unknown


ЦИТАТА(aesteticvice @ 1st July 2018 - 07:05:35) *
Sounds like finnish doom pioneers Shape of Despair.

мне скорее наш Абстракт Спирит ил Коматоз Виджил напомнило.

Но слушать однозначно.
Go to the top of the page
  Insert nick Quick quote
+Quote Post
post Jul 5 2018, 20:18:58
Post #4

Group: Подсевший
Posts: 41
Releases: 0
On Forums: 11 months 3 weeks
Thanks: 38 time(s)
Russian Federation


ЦИТАТА(Chasm @ Jul 1 2018, 18:03:50) *
мне скорее наш Абстракт Спирит ил Коматоз Виджил напомнило.

согласен.
Go to the top of the page
  Insert nick Quick quote
+Quote Post
post Jul 10 2018, 22:08:25
Post #5

Шесть Литров
******
Group: Металариец
Posts: 655
Releases: 0
On Forums: 10 years 11 months
Thanks: 242 time(s)
Belarus


действительно, отличный материал. в данном стиле в этом году в лучшее
Go to the top of the page
  Insert nick Quick quote
+Quote Post

Reply to this topicStart new topic
1 User(s) are reading this topic (1 Guests and 0 Anonymous Users)
0 Members:

 



- Lo-Fi Version Support form
Copyrights and abuse reports form
Time is now: 17th October 2018 - 21:02:40