Welcome Guest ( Log In | Register )

> И неформату есть предел.

Рэп/хип-хоп/шансон/поп удаляются. Для них есть свои порталы.

 
Reply to this topicStart new topic
> Solar Fields - Red/Green/Blue [best of/compilation] (2018), Ambient/Downtempo/electronic (D4)
post Jun 30 2018, 16:20:59
Post #1

Девять Литров
*********
Group: Металариец
Posts: 979
Releases: 370
On Forums: 7 years 7 months
Thanks: 8100 time(s)
North Korea


(IMG:http://metalarea.org/images/audiocovers/2018_Jun/acov_tid307694_thumb.jpg)

*Artist: Solar Fields
*Album: Red/Green/Blue [best of/compilation]
*Year: 2018
*Genre: Ambient/Downtempo/Electronic
*Country: Sweden (IMG:http://metalarea.org/forum/style_images/flags/Sweden.png)
*Format: mp3@CBR320kbps
*Size: 543MB

Tracklist:
CD1 Red
01. Jeezlh 09:14
02. Velvet Reptile 08:58
03. Confusion Illusion 07:28
04. Union Light 07:28
05. Combinations (On/Off Edit) 05:12
06. Fiat Lux 09:19
07. Electric-Fluid (Early Mix) 06:51
08. Times Are Good (Sometimes Remix) 08:06
09. Compressed Universe (Edit) 06:51
10. OnFlow (Edit) 08:23

CD2 Green
01. Level Out 08:14
02. Magic Eye (Remix) 09:19
03. Sol (Remix) 06:31
04. Spiritual Ocean 06:25
05. Levitate 10:47
06. Insum (Remix) 07:37
07. H.U.V.A Network - Rain Geometry (Solar Fields Rmx)07:16
08. Respiratory Rate 07:50
09. The Sight Is White 07:02
10. Third Time (T Version) 07:44

CD3 Blue
01. Life 06:38
02. Good Times 07:45
03. Air Song (Remix) 07:24
04. Passage 07:03
05. Water Silence 06:01
06. Blue Moon Station 06:34
07. Small Little Green Cubes 08:52
08. Something Crystal 08:41
09. Filteria - Cloud Kingdom (Solar Fields Remix) 09:25
10. In Motion (Good Morning Edit) 10:56
******************************
Total playing time: 3:55:54

Preview 1

Extended info
3 × CD, Compilation Box Set released by Sidereal (aka Avantgarde Music)


Technical info
(IMG:http://metalarea.org/images/spectrogram/2018_Jun/0a20b992832dba269c63652410177c10.png)
Input File: 01.Solar Fields - Jeezih - - Senza Titolo1.mp3
Channels : 2
Sample Rate : 44100
Precision : 16-bit
Duration : 00:01:42.04 = 4499788 samples = 7652.7 CDDA sectors
File Size : 4.08M
Bit Rate : 320k
Sample Encoding: MPEG audio (layer I, II or III)



Register


Go to the top of the page
  Insert nick Quick quote
+Quote Post

Reply to this topicStart new topic
2 User(s) are reading this topic (2 Guests and 0 Anonymous Users)
0 Members:

 



- Lo-Fi Version Support form
Copyrights and abuse reports form
Time is now: 20th July 2018 - 11:36:53