Welcome Guest ( Log In | Register )

> И неформату есть предел.

Рэп/хип-хоп/шансон/поп удаляются. Для них есть свои порталы.

 
Reply to this topicStart new topic
> Glassmode - Beyond The Silence [ep] (2007), Gothic Metal/Rock
post Jun 30 2018, 22:01:07
Post #1

but I'm white and furry
**********
Group: Металариец
Posts: 1,100
Releases: 388
From: Москва
On Forums: 12 years 8 months
Thanks: 4736 time(s)
Russian Federation


(IMG:https://metalarea.org/images/audiocovers/2018_Jun/acov_tid307708_thumb.jpg)

*Artist: Glassmode
*Album: Beyond The Silence [ep]
*Year: 2007
*Genre: Gothic Metal/Rock
*Country: Italy (IMG:https://metalarea.org/forum/style_images/flags/Italy.png)
*Format: mp3@VBR195kbps
*Size: 25MB

Tracklist:
1. Wicked Eyes 3:01
2. Breathe 3:22
3. Goodbye - I Can't Trick My Heart 3:51
4. Becoming a Butterfly 3:27
5. Betrayed 4:31
******************************
Total playing time: 18:12

(IMG:https://metalarea.org/images/youtube.png)

Technical info
(IMG:https://metalarea.org/images/spectrogram/2018_Jun/af418aed99cb2312eb7e7d56915bd042.png)
Input File: 01 - Wicked Eyes.mp3
Channels : 2
Sample Rate : 44100
Precision : 16-bit
Duration : 00:03:00.82 = 7974118 samples = 13561.4 CDDA sectors
File Size : 4.55M
Bit Rate : 201k
Sample Encoding: MPEG audio (layer I, II or III)
Comments :
Title=Wicked Eyes
Artist=Glassmode
Album=Beyond The Silence
Tracknumber=1
Year=2007
Genre=Metal



Register


Thanks:
Go to the top of the page
  Insert nick Quick quote
+Quote Post

Reply to this topicStart new topic
2 User(s) are reading this topic (2 Guests and 0 Anonymous Users)
0 Members:

 



- Lo-Fi Version Support form
Copyrights and abuse reports form
Time is now: 18th October 2018 - 01:36:23