Welcome Guest ( Log In | Register )

> Releases Upload / Добавление релизов

Добавить релиз тут / Click here to add release
Рекомендованные обменники / Recommended file shares

> Urfaust - Live At Acherontic Arts 3 [live] (2018), Black Metal
post Jul 1 2018, 12:23:18
Post #1

Маньяк
**********
Group: Металариец
Posts: 1,314
Releases: 1016
From: Prešov
On Forums: 4 years 3 months
Thanks: 23427 time(s)
Slovakia


(IMG:http://metalarea.org/images/audiocovers/2018_Jul/acov_tid307716_thumb.jpg)

*Artist: Urfaust
*Album: Live At Acherontic Arts 3 [live]
*Year: 2018
*Genre: Black Metal
*Country: Netherlands (IMG:http://metalarea.org/forum/style_images/flags/Netherlands.png)
*Format: mp3@CBR320kbps
*Size: 87MB

Tracklist:
1. Meditatum III
2. Die kalte Teufelsfaust
3. Unter Töchtern der Wüste
4. Rituale II
5. Rituale III
******************************
Total playing time: 37:35



Extended info
Ván Records - VAN244


Technical info
(IMG:http://metalarea.org/images/spectrogram/2018_Jul/7ca65840e7b3fc77cbf2b7ded99959be.png)
Input File: 02. Meditatum III (live).mp3
Channels : 2
Sample Rate : 44100
Precision : 16-bit
Duration : 00:09:26.03 = 24961879 samples = 42452.2 CDDA sectors
File Size : 22.9M
Bit Rate : 323k
Sample Encoding: MPEG audio (layer I, II or III)
Comments :
Title=Meditatum III (live)
Artist=Urfaust
Album=Live at Acherontic Arts 3
Tracknumber=2
Year=2018
Genre=Black Metal



Register


Go to the top of the page
  Insert nick Quick quote
+Quote Post
 
Start new topic
Replies (1 - 6)
post Jul 1 2018, 14:04:08
Post #2

Русь Понад Усе!
**************
Group: Металариец
Posts: 4,044
Releases: 15
From: Украина
On Forums: 10 years 10 months
Thanks: 1541 time(s)
Ukraine


А можно перзалить на другие файло-обменники?
Go to the top of the page
  Insert nick Quick quote
+Quote Post
post Jul 1 2018, 20:43:49
Post #3

Prisoner Of Our Time
**************
Group: Металариец
Posts: 3,542
Releases: 39
From: Луганск, 13 регион, экс-"404"
On Forums: 12 years 8 months
Thanks: 1000 time(s)
Unknown


ЦИТАТА(recber @ 1st July 2018 - 16:04:08) *
А можно перзалить на другие файло-обменники?

может завтра - я сейчас у тёщи, а тут Инет медленный (отдача тоже наверное низкая)
завтра попробую залить на мегу или медиафайер (вот и проверю)


Thanks:
(1) recber,
Go to the top of the page
  Insert nick Quick quote
+Quote Post
post Jul 1 2018, 20:47:24
Post #4

а ты попал в даунтаун
*********
Group: Металариец
Posts: 956
Releases: 46
From: Москва
On Forums: 9 years 3 months
Thanks: 2810 time(s)
Russian Federation


Недурный такой лайв. Очень органично совместилось творчество разных периодов.
Go to the top of the page
  Insert nick Quick quote
+Quote Post
post Jul 2 2018, 12:37:46
Post #5
BAN
Banned till
Aug 5 2018, 14:02:28



@320

Register
Go to the top of the page
  Insert nick Quick quote
+Quote Post
post Jul 2 2018, 14:30:06
Post #6

Prisoner Of Our Time
**************
Group: Металариец
Posts: 3,542
Releases: 39
From: Луганск, 13 регион, экс-"404"
On Forums: 12 years 8 months
Thanks: 1000 time(s)
Unknown


еле залил на медиафайер - какой же у тёщи медленный Инет (частный сектор, ADSL, "Укртелеком" (IMG:style_emoticons/default/6.gif) )
тот же альбом, 320кБит/с:
Register
Go to the top of the page
  Insert nick Quick quote
+Quote Post
post Jul 13 2018, 09:10:20
Post #7

Prisoner Of Our Time
**************
Group: Металариец
Posts: 3,542
Releases: 39
From: Луганск, 13 регион, экс-"404"
On Forums: 12 years 8 months
Thanks: 1000 time(s)
Unknown


Если кому-то ещё нужно - тот же архив, на МЕГЕ:
Register
CBR, 320 кБит/с
Go to the top of the page
  Insert nick Quick quote
+Quote Post

Reply to this topicStart new topic
1 User(s) are reading this topic (1 Guests and 0 Anonymous Users)
0 Members:

 



- Lo-Fi Version Support form
Copyrights and abuse reports form
Time is now: 23rd July 2018 - 18:17:31