Welcome Guest ( Log In | Register )

> И неформату есть предел.

Рэп/хип-хоп/шансон/поп удаляются. Для них есть свои порталы.

 
Reply to this topicStart new topic
> Ikd-Sj - Yvideo (2018), Psychedelic/Experimental Metal/Artcore (D6)
post Jul 2 2018, 12:21:20
Post #1

Правь статус, ####!111
**************
Group: Металариец
Posts: 2,721
Releases: 726
On Forums: 7 years 9 months
Thanks: 9561 time(s)
Ukraine


(IMG:https://metalarea.org/images/audiocovers/2018_Jul/acov_tid307752_thumb.png)

*Artist: Ikd-Sj
*Album: Yvideo
*Year: 2018
*Genre: Psychedelic/Experimental Metal/Artcore
*Country: Japan (IMG:https://metalarea.org/forum/style_images/flags/Japan.png)
*Format: mp3@CBR320kbps
*Size: 180MB

Tracklist:
1. Introduction 00:49
2. つぼみ 05:32
3. T.R.A.P 05:24
4. Μůżė 03:34
5. Toluene 04:45
6. Annaka 03:57
7. Arigato 07:11
8. Pucci Angel 06:13
9. Special Mania 00:44
10. snakelust 03:24
11. Man-Gro 04:38
12. Teleportation 03:15
13. Clean Blood 00:53
14. 裸足の夜 04:38
15. Safari Park In The Rain 05:30
16. Walk 05:18
17. L'absinthe 06:45
18. Bread, Guns, Butter, Circuses 01:36
19. bivouac 04:36
******************************
Total playing time: 1:18:42



(IMG:https://metalarea.org/images/youtube.png)
(IMG:https://metalarea.org/images/youtube.png)
(IMG:https://metalarea.org/images/youtube.png)

Extended info
Line-Up:
Sakagchi Hirokads (Guitar)
Nannjo Katsche (Guitar)
Hirakawa Mitzsrru (Bass)
Kiqrrr (Drums)
A.Ogiishi (Vocal)

New album of awesome Experimental Metal/Trip-Rock band from Tokyo.
For fans of Deftones, Tool, Dir En Grey, 101A, KoЯn and groovy mathcore stuff.


Technical info
(IMG:https://metalarea.org/images/spectrogram/2018_Jul/24d53f8dd717f5836cdcc35af5d6b036.png)
Input File: 06 - Annaka.mp3
Channels : 2
Sample Rate : 44100
Precision : 16-bit
Duration : 00:03:57.94 = 10492978 samples = 17845.2 CDDA sectors
File Size : 9.54M
Bit Rate : 321k
Sample Encoding: MPEG audio (layer I, II or III)
Comments :
Title=Annaka
Artist=ikd-sj
Album=Yvideo
Tracknumber=6
Year=2018



Register


Thanks:
Go to the top of the page
  Insert nick Quick quote
+Quote Post

Reply to this topicStart new topic
1 User(s) are reading this topic (1 Guests and 0 Anonymous Users)
0 Members:

 



- Lo-Fi Version Support form
Copyrights and abuse reports form
Time is now: 20th July 2018 - 11:33:46