Welcome Guest ( Log In | Register )

> И неформату есть предел.

Рэп/хип-хоп/шансон/поп удаляются. Для них есть свои порталы.

> Tad - God's Balls (1989), Grunge/Alternative Rock
post Jul 2 2018, 12:51:42
Post #1

0,5 минералки и шоколадка
**************
Group: Металариец
Posts: 2,799
Releases: 119
From: Karelia
On Forums: 9 years 2 months
Thanks: 3735 time(s)
NATO


(IMG:http://metalarea.org/images/audiocovers/2018_Jul/acov_tid307755_thumb.jpg)

*Artist: Tad
*Album: God's Balls
*Year: 1989
*Genre: Grunge/Alternative Rock
*Country: United States (IMG:http://metalarea.org/forum/style_images/flags/United%20States.png)
*Format: mp3@CBR320kbps
*Size: 92MB

Tracklist:
01. Behemoth 4:10
02. Pork Chop 4:22
03. Helot 2:58
04. Tuna Car 2:37
05. Sex God Missy (Lumberjack Mix) 4:29
06. Cyanide Bath 3:37
07. Boiler Room 4:49
08. Satan's Chainsaw 3:10
09. Hollow Man 4:05
10. Nipple Belt 3:17
11. Ritual Device 2:50
******************************
Total playing time: 40:24

Extended info
Тед Дойл, этакий матёрый человечище, сиэлтский Гаргантюа, или, по выражению лондонских крикунов на одном из его ранних концертов, "жирный ублюдок". Тогдашняя фенька гласила, что Господин Тед был лесорубом, за каждым усилителем была спрятана бензопила, а сам он жаждал гнусных развлечений. "Тед - это парень, который любит развлекаться и плюет на всех", - заявила его фирма грамзаписи. У него также имелась группа, удачно названная "Tad", из которой только басист Курт Дэниэлсон осмеливался открывать рот публично.
Сумев свести в единое целое ритмический ураган "Black Flag", грандж "Mudhoney" и навыки американской треш-культуры, Тед добился успеха. Дебютный альбом "God's Balls" был назван в честь кульминационного момента в дешевом порнофильме. В него входили композиции "Sex God Missy", страшная история о сексуальной ненависти, прорывающаяся сквозь невнятное бормотание коротковолнового радиотелефона, и "Nipple Belt", написанная в духе "лесорубов" Сиэтла, в котором рассказывалось о знаменитом массовом убийстве, устроенном в Техасе Эдом Гейном с бензопилой в руках. "Поставьте диск на проигрыватель, и он закрутится, как пилорама", - утверждалось в газетных рекламах (с) Nirvana и саунд Сиэтла


Technical info
(IMG:http://metalarea.org/images/spectrogram/2018_Jul/31f1489626154a4b5863af4c6d31877f.png)
Input File: 01 - Behemoth.mp3
Channels : 2
Sample Rate : 44100
Precision : 16-bit
Duration : 00:04:10.74 = 11057634 samples = 18805.5 CDDA sectors
File Size : 10.1M
Bit Rate : 323k
Sample Encoding: MPEG audio (layer I, II or III)
Comments :
Title=Behemoth
Artist=Tad
Album=God's Balls
Tracknumber=01/11
Year=1989
Genre=Alternative Rock/Grunge
Discnumber=1



Register


Thanks:
Go to the top of the page
  Insert nick Quick quote
+Quote Post
 
Start new topic
Replies (1 - 1)
post Jul 10 2018, 18:20:03
Post #2

Два Литра
**
Group: Завсегдатай
Posts: 144
Releases: 0
From: Kiev
On Forums: 9 years 6 months
Thanks: 35 time(s)
Ukraine


они кстати живы до сих пор. В этом году новый альбом вышел (IMG:style_emoticons/default/20.gif)
Go to the top of the page
  Insert nick Quick quote
+Quote Post

Reply to this topicStart new topic
1 User(s) are reading this topic (1 Guests and 0 Anonymous Users)
0 Members:

 



- Lo-Fi Version Support form
Copyrights and abuse reports form
Time is now: 20th July 2018 - 11:35:01