Welcome Guest ( Log In | Register )

> Forum rules / Правила раздела

Here go releases which can't go to New releases forums due lack of information, stolen links or incorrect data and just founded in other sites links with minimum info. Reissue of this releases through Add release form with added/corrected data, info and own links highly welcomed.

Сюда уходят релизы, не пропущенные в основные релизные форумы по причинам отсутствия, недостаточности или неверности/некорректности сопровождающей информации, содержащие ссылки, указывающие на файлы, залитые не автором темы, а так же просто найденные где-то ссылки с минимумом информации. Переоформление тем отсюда через форму Добавления релиза с перезаливкой ссылок крайне приветствуется.

> Striborg - Rubus Fruticosus Entanglement [single] (2016), Black Metal/Ambient
post Jul 2 2018, 12:57:25
Post #1

Три Литра
***
Group: Завсегдатай
Posts: 289
Releases: 48
On Forums: 5 years 4 months
Thanks: 894 time(s)
Serbia


(IMG:http://metalarea.org/images/audiocovers/2018_Jul/acov_tid307756_thumb.jpg)

*Artist: Striborg
*Album: Rubus Fruticosus Entanglement [single]
*Year: 2016
*Genre: Black Metal/Ambient
*Country: Australia (IMG:http://metalarea.org/forum/style_images/flags/Australia.png)
*Format: mp3@CBR215kbps
*Size: 10MB

Tracklist:
1. Rubus Fruticosus Entanglement 05:49
******************************
Total playing time: 5:49

Technical info
(IMG:http://metalarea.org/images/spectrogram/2018_Jul/781c51bd41ebd3c875504efa05dbfb03.png)
Input File: 01-rubus fruticosus entanglement.mp3
Channels : 2
Sample Rate : 44100
Precision : 16-bit
Duration : 00:05:49.52 = 15413744 samples = 26213.9 CDDA sectors
File Size : 9.95M
Bit Rate : 228k
Sample Encoding: MPEG audio (layer I, II or III)
Comments :
Title=Rubus Fruticosus Entanglement
Artist=Striborg
Year=2016



Register


Go to the top of the page
  Insert nick Quick quote
+Quote Post
 
Start new topic
Replies (1 - 1)
post Dec 27 2018, 22:33:33
Post #2

Мегаманьяк
***********
Group: Металариец
Posts: 1,721
Releases: 0
From: MoscoW
On Forums: 12 years 3 months
Thanks: 1553 time(s)
Russian Federation


Залито на Ядиск - 14Mb в 320kbps!!!:
Register

(IMG:style_emoticons/default/metaler.gif)


Thanks:
(1) Occultas,
Go to the top of the page
  Insert nick Quick quote
+Quote Post

Reply to this topicStart new topic
1 User(s) are reading this topic (1 Guests and 0 Anonymous Users)
0 Members:

 



- Lo-Fi Version Support form
Copyrights and abuse reports form
Time is now: 25th March 2019 - 11:04:19