Welcome Guest ( Log In | Register )

> И неформату есть предел.

Рэп/хип-хоп/шансон/поп удаляются. Для них есть свои порталы.

 
Reply to this topicStart new topic
> Necrologyst - Devoured By Daemons (2018), Gorenoise/Goregrind/Cybergrind
post Jul 2 2018, 13:32:36
Post #1

Serial Uploader
Group Icon
Group: V.I.P
Posts: 33,916
Releases: 32152
From: Lithuania
On Forums: 10 years 8 months
Thanks: 366742 time(s)
Lithuania


(IMG:https://metalarea.org/images/audiocovers/2019_Jan/acov_uid41155_17f59146c59ccf9026d1eba86fd278ca_thumb.jpg)

*Artist: Necrologyst
*Album: Devoured By Daemons
*Year: 2018
*Genre: Gorenoise/Goregrind/Cybergrind
*Country: Argentina (IMG:https://metalarea.org/forum/style_images/flags/Argentina.png)
*Format: mp3@CBR320kbps
*Size: 66MB

Tracklist:
01. Brain Drilling 02:16
02. Erotic Traumatomy 02:52
03. Gangrenophagia 01:49
04. Repulsive Putrefaction 01:43
05. Succubus Torture 01:44
06. Rotting Fecundation 01:49
07. Crossfire Carnage 04:06
08. Banshee Deepthroat (Feat M-47) 02:56
09. Devoured By Demons 01:16
10. Ripper Machine 02:16
11. Decapitated 02:11
12. Regurgitated Worms 03:10
******************************
Total playing time: 28:08




Technical info
(IMG:https://metalarea.org/images/spectrogram/2019_Jan/dcaef164a566cd8e1746e97b85212574.png)
Input File: 02. Erotic Traumatomy.mp3
Channels : 2
Sample Rate : 44100
Precision : 16-bit
Duration : 00:02:53.04 = 7631240 samples = 12978.3 CDDA sectors
File Size : 7.06M
Bit Rate : 326k
Sample Encoding: MPEG audio (layer I, II or III)
Comments :
Title=Erotic Traumatomy
Artist=Necrologyst
Album=Devoured by Demons
Tracknumber=2
Year=2018



Register


Thanks:
(1) Lanceatum,
Go to the top of the page
  Insert nick Quick quote
+Quote Post

Reply to this topicStart new topic
1 User(s) are reading this topic (1 Guests and 0 Anonymous Users)
0 Members:

 



- Lo-Fi Version Support form
Copyrights and abuse reports form
Time is now: 19th February 2019 - 15:44:50