Welcome Guest ( Log In | Register )

> И неформату есть предел.

Рэп/хип-хоп/шансон/поп удаляются. Для них есть свои порталы.

 
Reply to this topicStart new topic
> Enema Jizz & Vomiting Takoyaki - Takoyaki Jizz [split] (2018), Goregrind/Cybergrind | Goregrind/Noisegrind
post Jul 2 2018, 13:32:36
Post #1

Serial Uploader
Group Icon
Group: V.I.P
Posts: 32,862
Releases: 31157
From: Lithuania
On Forums: 10 years 1 month
Thanks: 356926 time(s)
Lithuania


(IMG:https://metalarea.org/images/audiocovers/2018_Jul/acov_tid307759_thumb.jpg)

*Artist: Enema Jizz & Vomiting Takoyaki
*Album: Takoyaki Jizz [split]
*Year: 2018
*Genre: Goregrind/Cybergrind | Goregrind/Noisegrind
*Country: Mexico (IMG:https://metalarea.org/forum/style_images/flags/Mexico.png) | Indonesia (IMG:https://metalarea.org/forum/style_images/flags/Indonesia.png)
*Format: mp3@CBR320kbps
*Size: 8MB

Tracklist:
Enema Jizz:
01. Untittled 1 00:55
02. Untittled 2 00:57
03. Untittled 3 00:17
04. Untittled 4 00:22
Vomiting Takoyaki:
05. Vomit 1 00:15
06. Vomit 2 00:23
07. Vomit 3 00:21
08. Vomit 4 00:05
******************************
Total playing time: 3:35


(IMG:https://metalarea.org/images/youtube.png)

Technical info
(IMG:https://metalarea.org/images/spectrogram/2018_Jul/7ef663f0b89ce23ceff801ef2d601e57.png)
Input File: 06. Vomit 2.mp3
Channels : 2
Sample Rate : 44100
Precision : 16-bit
Duration : 00:00:23.38 = 1031058 samples = 1753.5 CDDA sectors
File Size : 1.02M
Bit Rate : 349k
Sample Encoding: MPEG audio (layer I, II or III)
Comments :
Title=Vomiting Takoyaki - Vomit 2
Artist=Vomiting Takoyaki // Enema Jizz
Album=Takoyaki Jizz(2 Way Split)
Tracknumber=6
Year=2018



Register


Thanks:
(1) Lanceatum,
Go to the top of the page
  Insert nick Quick quote
+Quote Post

Reply to this topicStart new topic
1 User(s) are reading this topic (1 Guests and 0 Anonymous Users)
0 Members:

 



- Lo-Fi Version Support form
Copyrights and abuse reports form
Time is now: 20th July 2018 - 11:38:24