Welcome Guest ( Log In | Register )

> Ifernach - Maqtewek Nakuset [ep] (2016), Black Metal
post Jul 2 2018, 17:25:22
Post #1

Мегаманьяк
***********
Group: Металариец
Posts: 1,745
Releases: 1382
From: Prešov
On Forums: 5 years 4 months
Thanks: 33314 time(s)
Slovakia


(IMG:http://metalarea.org/images/audiocovers/2018_Jul/acov_tid307768_thumb.jpg)

*Artist: Ifernach
*Album: Maqtewek Nakuset [ep]
*Year: 2016
*Genre: Black Metal
*Country: Canada (IMG:http://metalarea.org/forum/style_images/flags/Canada.png)
*Format: mp3@CBR320kbps
*Size: 70MB

Tracklist:
1. Enemy at the Shores 06:46
2. Rivière funèbre 03:53
3. Le talion noir des âmes brulées 06:23
4. Wabanahkiyik 04:19
5. Dried jesuit 04:40
6. Matntmg 04:18
******************************
Total playing time: 30:19



Extended info
Les Productions Hérétiques - HER042


Technical info
(IMG:http://metalarea.org/images/spectrogram/2018_Jul/33004d02f9d466684338df43fd2b4a94.png)
Input File: 01. Enemy At The Shores.mp3
Channels : 2
Sample Rate : 44100
Precision : 16-bit
Duration : 00:06:46.44 = 17923916 samples = 30482.9 CDDA sectors
File Size : 16.4M
Bit Rate : 322k
Sample Encoding: MPEG audio (layer I, II or III)
Comments :
Title=enemy at the shores
Artist=Ifernach
Album=Maqtewek Nakuset
Tracknumber=01/06
Year=2017
Genre=Black Metal



Register


Go to the top of the page
  Insert nick Quick quote
+Quote Post
 
Start new topic
Replies (1 - 4)
post Nov 8 2018, 23:30:06    Сейчас играет: Necrovomitör - Massgrave Gang Bang
Post #2

antithesis
**************
Group: Металариец
Posts: 2,768
Releases: 31
From: VRN
On Forums: 9 years 2 months
Thanks: 1599 time(s)
Russian Federation


ни о чём.
Go to the top of the page
  Insert nick Quick quote
+Quote Post
post Mar 3 2019, 09:35:01
Post #3

Маньяк
**********
Group: Металариец
Posts: 1,211
Releases: 1
From: Беларусь
On Forums: 11 years 7 months
Thanks: 473 time(s)
Russian Federation


ЦИТАТА(Razorbladeswaltz @ Nov 9 2018, 01:30:06) *
ни о чём.

это твой коммментарий, а Ifernach - KVLT! Metal noir Quebecos
Go to the top of the page
  Insert nick Quick quote
+Quote Post
post Mar 3 2019, 10:28:34
Post #4

Правь статус, ####!111
**************
Group: Металариец
Posts: 42,300
Releases: 638
On Forums: 10 years 2 months
Thanks: 33137 time(s)
Russian Federation


ЦИТАТА(Moonshtook @ Mar 3 2019, 12:35:01) *
Ifernach - KVLT! Metal noir Quebecos


Первый раз вообше слышу такое название. (IMG:style_emoticons/default/1488.gif)

Вот Forteresse или там Monarque - то да, культ.
Go to the top of the page
  Insert nick Quick quote
+Quote Post
post Mar 3 2019, 11:03:46
Post #5

Правь статус, ####!111
**************
Group: Металариец
Posts: 2,088
Releases: 36
On Forums: 1 year 9 months
Thanks: 4642 time(s)
Unknown


сейчас культов пруд пруди, мешками вывози. просто неплохая группа не больше и не меньше.
Go to the top of the page
  Insert nick Quick quote
+Quote Post

Reply to this topicStart new topic
1 User(s) are reading this topic (1 Guests and 0 Anonymous Users)
0 Members:

 



- Lo-Fi Version Support form
Copyrights and abuse reports form
Time is now: 18th August 2019 - 02:45:21