Welcome Guest ( Log In | Register )

> 

Здесь релизы с живыми прямыми ссылками на lossless

> Centaurus-A - Means Of Escape (2018), Progressive/Technical Death Metal
post Jul 2 2018, 19:42:44
Post #1

Аннигилятор пивА
Group Icon
Group: V.I.P
Posts: 48,817
Releases: 14933
From: Koenigsberg - TILZIT
On Forums: 12 years 3 months
Thanks: 327130 time(s)
Russian Federation


(IMG:https://metalarea.org/images/audiocovers/2018_Jul/acov_tid307779_thumb.jpg)

*Artist: Centaurus-A
*Album: Means Of Escape
*Year: 2018
*Genre: Progressive/Technical Death Metal
*Country: Germany (IMG:https://metalarea.org/forum/style_images/flags/Germany.png)
*Format: mp3@CBR320kbps
*Size: 112MB

Tracklist:
01. Coalescence 04:16
02. Coma Crawl 05:10
03. [Dis]Grace of Charity 03:29
04. Immersed in Misery 04:33
05. Pitchblack Nothing 04:45
06. Down the Drain 04:14
07. Death Machine 05:17
08. Abysmal 01:59
09. Bad to the Bone 06:34
10. Hyenas and Tentacles 03:37
11. Random Euphoria Nights 04:17
******************************
Total playing time: 48:11




Extended info
Michael Ahlgrimm - Bass, Vocals (additional) (2000-present)
Maik Matanovik - Guitars (2000-present)
Hernan Andres Martinez Riveros - Guitars (2003-present) See also: Misticia, ex-Aardvarks, ex-Atavi, ex-Syre
Marc Dzierzon - Drums (2011-present) See also: Almanac, Dew-Scented, ex-Lelahell
Lawrence Mackrory - Vocals (Darkane, F.K.Ü., Scarve, Enemy Is Us, Loch Vostok, Sportlov, Döda Havet, Usurpress, Scavenger, Forcefed, Seethings, Andromeda, Nightrage, The Duskfall, The Project Hate MCMXCIX)




Technical info
(IMG:https://metalarea.org/images/spectrogram/2018_Jul/0cacd729e8c7d10e2798195b81c12b74.png)
Input File: 03 - [Dis]Grace of Charity.mp3
Channels : 2
Sample Rate : 44100
Precision : 16-bit
Duration : 00:03:29.86 = 9254650 samples = 15739.2 CDDA sectors
File Size : 8.51M
Bit Rate : 324k
Sample Encoding: MPEG audio (layer I, II or III)
Comments :
Title=[Dis]Grace of Charity
Artist=Centaurus-A
Album=Means of Escape
Tracknumber=03/11
Year=2018
Genre=Technical Death Metal



Register


FLAC (Tracks) /356MB

Register


Go to the top of the page
  Insert nick Quick quote
+Quote Post
 
Start new topic
Replies (1 - 7)
post Jul 2 2018, 23:22:43
Post #2

Правь статус, ####!111
**************
Group: Металариец
Posts: 14,277
Releases: 9902
From: Г.Харьков
On Forums: 6 years 4 months
Thanks: 162456 time(s)
Unknown


Register


Go to the top of the page
  Insert nick Quick quote
+Quote Post
post Jul 3 2018, 01:19:41
Post #3

Аннигилятор пивА
Group Icon
Group: V.I.P
Posts: 48,817
Releases: 14933
From: Koenigsberg - TILZIT
On Forums: 12 years 3 months
Thanks: 327130 time(s)
Russian Federation


MIRROR 320
Register



Go to the top of the page
  Insert nick Quick quote
+Quote Post
post Jul 6 2018, 06:21:41
Post #4

Аннигилятор пивА
Group Icon
Group: V.I.P
Posts: 48,817
Releases: 14933
From: Koenigsberg - TILZIT
On Forums: 12 years 3 months
Thanks: 327130 time(s)
Russian Federation


(IMG:style_emoticons/default/THIS_IS_SPARTA_v2_0_by_DoooM.gif)
Go to the top of the page
  Insert nick Quick quote
+Quote Post
post Jul 7 2018, 10:33:19
Post #5

Шесть Литров
******
Group: Металариец
Posts: 683
Releases: 0
From: China
On Forums: 10 years 8 months
Thanks: 458 time(s)
Bulgaria


Nine years after the excellent debut comes this opus; if the debut had its nice individual face with the constant hectic, stylish switches between thrash and death, this time the delivery clings more towards the progressive, not necessarily better excesses of acts like Obscura and Defeated Sanity. There are moments of greatness, of course, but overall the guys have lost some of their identity for the sake of a more generic, less interesting approach.


Go to the top of the page
  Insert nick Quick quote
+Quote Post
post Jul 8 2018, 08:36:11
Post #6

Аннигилятор пивА
Group Icon
Group: V.I.P
Posts: 48,817
Releases: 14933
From: Koenigsberg - TILZIT
On Forums: 12 years 3 months
Thanks: 327130 time(s)
Russian Federation


Go to the top of the page
  Insert nick Quick quote
+Quote Post
post Jul 15 2018, 19:17:25
Post #7

В чистоте и единстве:мысль-слово-дело
**************
Group: Металариец
Posts: 2,277
Releases: 9
From: Киев
On Forums: 11 years 2 months
Thanks: 1258 time(s)
Ukraine


Не впечатлило. Безликая стучалка с каким-то коровым вокалом местами.
Go to the top of the page
  Insert nick Quick quote
+Quote Post
post Jul 25 2018, 14:39:46
Post #8

Schuldinerist
**************
Group: Металариец
Posts: 9,823
Releases: 33
From:
On Forums: 11 years 5 months
Thanks: 5974 time(s)
Russian Federation


ЦИТАТА(metala @ Jul 7 2018, 12:33:19) *
Nine years after the excellent debut comes this opus; if the debut had its nice individual face with the constant hectic, stylish switches between thrash and death, this time the delivery clings more towards the progressive, not necessarily better excesses of acts like Obscura and Defeated Sanity. There are moments of greatness, of course, but overall the guys have lost some of their identity for the sake of a more generic, less interesting approach.

соглашусь пожалуй, подрастеряли немцы запал дебютника, но и так не плохо
7-8/10
Go to the top of the page
  Insert nick Quick quote
+Quote Post

Reply to this topicStart new topic
1 User(s) are reading this topic (1 Guests and 0 Anonymous Users)
0 Members:

 



- Lo-Fi Version Support form
Copyrights and abuse reports form
Time is now: 20th September 2018 - 20:07:03