Welcome Guest ( Log In | Register )

> Angel Of Damnation - Heathen Witchcraft (2018), Doom Metal
post Jul 3 2018, 04:10:07
Post #1

Правь статус, ####!111
**************
Group: Металариец
Posts: 23,175
Releases: 16155
From: Г.Харьков
On Forums: 8 years 4 months
Thanks: 300905 time(s)
Unknown


(IMG:https://metalarea.org/images/audiocovers/2018_Jul/acov_tid307799_thumb.jpg)

*Artist: Angel Of Damnation
*Album: Heathen Witchcraft
*Year: 2018
*Genre: Doom Metal
*Country: Germany (IMG:https://metalarea.org/forum/style_images/flags/Germany.png)
*Format: mp3@CBR320kbps
*Size: 112MB

Tracklist:
01. Brimstone Sorcery
02. Dragged to the Torture Wheel
03. Gospel of the Serpent (The Damnation of Gehenna)
04. Heathen Witchcraft
05. Lord of the Seven Churches
06. Tear Off the Veil Off the Sun
******************************
Total playing time: 46:34




Extended info
Avenger Guitars, Bass, Keyboards
See also: Black Priest of Satan, Exorcism, Front Beast, Hekate, Nocturnal, Phantom, Shrine, Szarlem, Terrorazor, The Fog, Witches Sabbath, ex-Bestial Desecration, ex-Necroslaughter, Skalar, Varghkoghargasmal, ex-Stormhunter, ex-H418ov21.C, ex-Poltergeist
Doomcult Messiah Vocals
See also: Battleroar, Dawn of Winter, Sacred Steel, ex-Tragedy Divine, ex-Cemetery, ex-Variety of Arts, ex-Astral Door
Forcas Bass (2013-present)
See also: Cross Vault, Halphas
Skullsplitter Drums (2013-present)
See also: Cross Vault, Halphas, Nocturnal, Terrorazor, ex-Zerstörer


Technical info
(IMG:https://metalarea.org/images/spectrogram/2018_Jul/d545f054fe865560d1d3d540bd6a25c9.png)
Input File: 02. Dragged to the Torture Wheel.mp3
Channels : 2
Sample Rate : 44100
Precision : 16-bit
Duration : 00:00:00.46 = 20242 samples = 34.4252 CDDA sectors
File Size : 18.5M
Bit Rate : 322M
Sample Encoding: MPEG audio (layer I, II or III)
Comments :
Title=Dragged to the Torture Wheel
Artist=Angel of Damnation
Album=Heathen Witchcraft
Tracknumber=2/6
Year=2018-18-20
Discnumber=1/1



Register


Go to the top of the page
  Insert nick Quick quote
+Quote Post
 
Start new topic
Replies (1 - 2)
post Jul 3 2018, 04:25:58
Post #2

Правь статус, ####!111
**************
Group: Металариец
Posts: 23,175
Releases: 16155
From: Г.Харьков
On Forums: 8 years 4 months
Thanks: 300905 time(s)
Unknown


Register


Go to the top of the page
  Insert nick Quick quote
+Quote Post
post Nov 7 2019, 15:33:14
Post #3

Group: Подсевший
Posts: 29
Releases: 0
On Forums: 1 year 3 months
Thanks: 11 time(s)
Russian Federation


Register
Go to the top of the page
  Insert nick Quick quote
+Quote Post

Reply to this topicStart new topic
1 User(s) are reading this topic (1 Guests and 0 Anonymous Users)
0 Members:

 



- Lo-Fi Version Support form
Copyrights and abuse reports form
Time is now: 21st September 2020 - 20:30:04