Welcome Guest ( Log In | Register )

> И неформату есть предел.

Рэп/хип-хоп/шансон/поп удаляются. Для них есть свои порталы.

> Stronghold Guardian - Eastward (2018), Medieval Ambient/Dungeon Synth
post Jul 4 2018, 06:09:16
Post #1

Serial Uploader
Group Icon
Group: V.I.P
Posts: 32,862
Releases: 31157
From: Lithuania
On Forums: 10 years 1 month
Thanks: 356926 time(s)
Lithuania


(IMG:http://metalarea.org/images/audiocovers/2018_Jul/acov_tid307841_thumb.jpg)

*Artist: Stronghold Guardian
*Album: Eastward
*Year: 2018
*Genre: Medieval Ambient/Dungeon Synth
*Country: Serbia (IMG:http://metalarea.org/forum/style_images/flags/Serbia.png)
*Format: mp3@CBR320kbps
*Size: 88MB

Tracklist:
01. 1301 A.D. 02:02
02. Eastward 04:23
03. Castlebound 02:16
04. The Magic of the Ages Long Forgotten 05:18
05. A Silent Passage (Hermit's Path) 03:02
06. Red Dragon Tavern 03:40
07. The Owl and the Forest 04:21
08. A New Beginning 04:44
09. The Abandoned Keep 03:36
10. Lost Forever in the Tides of Time 04:03
******************************
Total playing time: 37:25



Technical info
(IMG:http://metalarea.org/images/spectrogram/2018_Jul/16800d3888496d109456a23e58c6ff7a.png)
Input File: 02. Eastward.mp3
Channels : 2
Sample Rate : 44100
Precision : 16-bit
Duration : 00:04:24.06 = 11645046 samples = 19804.5 CDDA sectors
File Size : 10.7M
Bit Rate : 324k
Sample Encoding: MPEG audio (layer I, II or III)
Comments :
Title=Eastward
Artist=Stronghold Guardian
Album=Eastward
Tracknumber=2
Year=2018



Register


Go to the top of the page
  Insert nick Quick quote
+Quote Post
 
Start new topic
Replies (1 - 5)
post Jul 4 2018, 13:05:03
Post #2

Аннигилятор пивА
Group Icon
Group: V.I.P
Posts: 47,380
Releases: 14275
From: Koenigsberg - TILZIT
On Forums: 12 years 1 month
Thanks: 316116 time(s)
Russian Federation


это Medieval Ambient/Dungeon Synth, жанр к миталу не имеет отношения, чисто компутерно-клавишные семплы, совсем без гитар
Go to the top of the page
  Insert nick Quick quote
+Quote Post
post Jul 4 2018, 13:12:21
Post #3

Семь Литров
*******
Group: Металариец
Posts: 782
Releases: 164
On Forums: 7 years 9 months
Thanks: 1969 time(s)
Albania


Go to the top of the page
  Insert nick Quick quote
+Quote Post
post Jul 5 2018, 01:25:02
Post #4

0,5 минералки и шоколадка
**************
Group: Металариец
Posts: 2,799
Releases: 119
From: Karelia
On Forums: 9 years 2 months
Thanks: 3735 time(s)
NATO


тяжеловато как-то порой из-за того, что авторы делают упор на низкие частоты. Такая музыка должна быть воздушней, а не как будто в катакомбах.
Go to the top of the page
  Insert nick Quick quote
+Quote Post
post Jul 5 2018, 12:33:57
Post #5

Dark Ambient Shoujo
*********
Group: Металариец
Posts: 993
Releases: 1
On Forums: 9 years 6 months
Thanks: 489 time(s)
Russian Federation


ЦИТАТА(shial @ 5th July 2018 - 03:25:02) *
воздушней, а не как будто в катакомбах

ЦИТАТА
Dungeon Synth

(IMG:https://i.kym-cdn.com/photos/images/masonry/001/384/423/555.jpg)


Thanks:
(1) Ghostb,
Go to the top of the page
  Insert nick Quick quote
+Quote Post
post Jul 5 2018, 12:44:10
Post #6

0,5 минералки и шоколадка
**************
Group: Металариец
Posts: 2,799
Releases: 119
From: Karelia
On Forums: 9 years 2 months
Thanks: 3735 time(s)
NATO


Dungeon Synth качественный - это когда рука тянется если не сражаться с драконом за принцессу, а хотя бы Morrovind скачать поиграть.


Thanks:
(1) dk201x,
Go to the top of the page
  Insert nick Quick quote
+Quote Post

Reply to this topicStart new topic
1 User(s) are reading this topic (1 Guests and 0 Anonymous Users)
0 Members:

 



- Lo-Fi Version Support form
Copyrights and abuse reports form
Time is now: 20th July 2018 - 11:23:45