Welcome Guest ( Log In | Register )

> Grave Disgrace - Sabbatharium (2018), Stoner/Doom Metal (D5)
post Jul 5 2018, 04:31:48
Post #1

Serial Uploader
Group Icon
Group: V.I.P
Posts: 37,532
Releases: 35706
From: Lithuania
On Forums: 12 years 10 months
Thanks: 431399 time(s)
Lithuania


(IMG:http://metalarea.org/images/audiocovers/2018_Jul/acov_tid307872_thumb.jpg)

*Artist: Grave Disgrace
*Album: Sabbatharium
*Year: 2018
*Genre: Stoner/Doom Metal
*Country: Russian Federation (IMG:http://metalarea.org/forum/style_images/flags/Russian%20Federation.png)
*Format: mp3@CBR320kbps
*Size: 101MB

Tracklist:
01. Nightmares 06:16
02. Painkiller 07:14
03. Atomic Victims 08:40
04. The Grim Aftemath 03:10
05. Death Valley 06:36
06. Everlasting Fire 06:14
07. Warriors Of Doom 05:58
******************************
Total playing time: 44:08



Technical info
(IMG:http://metalarea.org/images/spectrogram/2018_Jul/3e36236696cb45222c3d0ffb231d4400.png)
Input File: 02. Painkiller.mp3
Channels : 2
Sample Rate : 44100
Precision : 16-bit
Duration : 00:07:14.13 = 19145133 samples = 32559.8 CDDA sectors
File Size : 17.4M
Bit Rate : 320k
Sample Encoding: MPEG audio (layer I, II or III)
Comments :
Title=Painkiller
Artist=Grave Disgrace
Album=Sabbatharium
Tracknumber=2/7
Year=2018



Register


Go to the top of the page
  Insert nick Quick quote
+Quote Post
 
Start new topic
Replies (1 - 8)
post Jul 5 2018, 13:22:50
Post #2

Подвал
**************
Group: Металариец
Posts: 15,933
Releases: 9106
From: Far East (Khabarovsk)
On Forums: 12 years 2 months
Thanks: 102124 time(s)
Russian Federation


Могильное Безобразие... Сколько приятных воспоминаний в этом словосочетании...
Сабж не слушал и вряд ли буду. Stoner не мое.
Go to the top of the page
  Insert nick Quick quote
+Quote Post
post Jul 5 2018, 13:26:12
Post #3

Два Литра
**
Group: Завсегдатай
Posts: 182
Releases: 0
On Forums: 7 years 1 month
Thanks: 58 time(s)
Unknown


Mirror please?
Go to the top of the page
  Insert nick Quick quote
+Quote Post
post Jul 5 2018, 13:29:40
Post #4

Правь статус, ####!111
**************
Group: Металариец
Posts: 48,637
Releases: 811
On Forums: 11 years 10 months
Thanks: 42820 time(s)
Russian Federation


Одна из лучших питерских банд в жанре! Тут бы еще хард рок прописать в тэгах надобно.

@320

Register


Go to the top of the page
  Insert nick Quick quote
+Quote Post
post Jul 5 2018, 16:06:33
Post #5

Правь статус, ####!111
**************
Group: Металариец
Posts: 48,637
Releases: 811
On Forums: 11 years 10 months
Thanks: 42820 time(s)
Russian Federation


ЦИТАТА(Proteus_666 @ Jul 5 2018, 16:22:50) *
Могильное Безобразие...


Осквернение (IMG:style_emoticons/default/crazy.gif) А что до сабжа, то здесь хард рока много и дума, поэтому слушай, не разочаруешься. Стонера минимум.
Go to the top of the page
  Insert nick Quick quote
+Quote Post
post Jul 5 2018, 16:29:07
Post #6

Маньяк
**********
Group: Металариец
Posts: 1,019
Releases: 0
On Forums: 9 years 4 months
Thanks: 155 time(s)
Ukraine


ЦИТАТА(vosmidesijatye @ Jul 5 2018, 16:06:33) *
Стонера минимум.

Это шютка?Может наоборот достаточно много? (IMG:style_emoticons/default/bye.gif)
Go to the top of the page
  Insert nick Quick quote
+Quote Post
post Nov 4 2018, 02:55:29
Post #7

Шесть Литров
******
Group: Металариец
Posts: 608
Releases: 1
From: АР Крым, Симферополь
On Forums: 13 years 2 weeks
Thanks: 309 time(s)
Russian Federation


Это вышка!! У группы и прошлые релизы были весьма неплохи, давненько уже слежу за творчеством группы, лет 5, но свежий третий полноформатник уделывает как по мне лично весь ранее до него выпущенный материал. Жирно, кошерно и крайне тягуче!! (IMG:style_emoticons/default/t2017.gif) (IMG:style_emoticons/default/27.gif) (IMG:style_emoticons/default/27.gif) (IMG:style_emoticons/default/27.gif) (IMG:style_emoticons/default/metaler.gif) (IMG:style_emoticons/default/pray.gif)
Go to the top of the page
  Insert nick Quick quote
+Quote Post
post Apr 16 2020, 13:18:12
Post #8

Group Icon
Group: S-moderation team
Posts: 20,347
Releases: 1441
From: Zagreb
On Forums: 10 years 1 month
Thanks: 93225 time(s)
Croatia


Register


Go to the top of the page
  Insert nick Quick quote
+Quote Post
post Apr 23 2020, 00:27:44
Post #9

Шесть Литров
******
Group: Металариец
Posts: 608
Releases: 1
From: АР Крым, Симферополь
On Forums: 13 years 2 weeks
Thanks: 309 time(s)
Russian Federation


ЦИТАТА
Grave Disgrace - Day of the Dead
Наш новый альбом "Rest In Peace" почти готов. Долбите новый трек и обложку!
© VK
https://vk.com/gravedisgrace



Thanks:
(1) eddbuzz,
Go to the top of the page
  Insert nick Quick quote
+Quote Post

Reply to this topicStart new topic
2 User(s) are reading this topic (2 Guests and 0 Anonymous Users)
0 Members:

 



- Lo-Fi Version Support form
Copyrights and abuse reports form
Time is now: 18th April 2021 - 01:31:52