Welcome Guest ( Log In | Register )

> И неформату есть предел.

Рэп/хип-хоп/шансон/поп удаляются. Для них есть свои порталы.

> Genesis - From Genesis To Revelation (1969), Progressive Rock (D8)
post Jul 5 2018, 19:21:33
Post #1


**********
Group: Металариец
Posts: 1,154
Releases: 186
From: Подмосковье
On Forums: 9 years 2 months
Thanks: 2832 time(s)
Russian Federation


(IMG:http://metalarea.org/images/audiocovers/2018_Jul/acov_tid307905_thumb.jpg)

*Artist: Genesis
*Album: From Genesis To Revelation
*Year: 1969
*Genre: Progressive Rock
*Country: United Kingdom (IMG:http://metalarea.org/forum/style_images/flags/United%20Kingdom.png)
*Format: mp3@CBR320kbps
*Size: 123MB

Tracklist:
01. Where The Sour Turns Sweet 3:15
02. In The Beginning 3:45
03. Fireside Song 4:19
04. The Serpent 4:39
05. Am I Very Wrong 3:32
06. In The Wilderness 3:30
07. The Conqueror 3:41
08. In Hiding 2:38
09. One Day 3:22
10. Window 3:34
11. In Limbo 3:30
12. The Silent Sun 2:14
13. A Place To Call My Own 2:00
14. The Silent Sun [bonus track] 2:15
15. That's Me [bonus track] 2:41
16. A Winter's Tale [bonus track] 3:32
17. One Eyed Hound [bonus track] 2:32
******************************
Total playing time: 54:59

(IMG:http://metalarea.org/images/youtube.png)

Extended info
1990, not remaster.
Line-up / Musicians
- Peter Gabriel / lead vocals, flute, tambourine
- Anthony Phillips / acoustic & electric guitar, backing vocals
- Tony Banks / piano, organ, backing vocals
- Mike Rutherford / bass, acoustic guitar, backing vocals
- Jonathan Silver / drums & percussion (1-13 & 2.11,2.13)
With:
- Arthur Greenslade / string & brass arrangements, musical director
- Lou Warburton / string & brass arrangements
- David Thomas / harmony vocals
- Chris Stewart / drums (2.5-2.8)


Technical info
(IMG:http://metalarea.org/images/spectrogram/2018_Jul/cb46446ea2300bb66883c4433cf8ace3.png)
Input File: 02 In The Beginning.mp3
Channels : 2
Sample Rate : 44100
Precision : 16-bit
Duration : 00:03:46.58 = 9991958 samples = 16993.1 CDDA sectors
File Size : 9.06M
Bit Rate : 320k
Sample Encoding: MPEG audio (layer I, II or III)
Comments :
Title=In The Beginning
Artist=Genesis
Album=From Genesis To Revelation
Tracknumber=2/17
Year=1969
Genre=Progressive Rock



Register


Go to the top of the page
  Insert nick Quick quote
+Quote Post
 
Start new topic
Replies (1 - 6)
post Jul 6 2018, 10:18:37
Post #2


**********
Group: Металариец
Posts: 1,154
Releases: 186
From: Подмосковье
On Forums: 9 years 2 months
Thanks: 2832 time(s)
Russian Federation


2000, 2 CD Edition, remastered.
320
Register


Go to the top of the page
  Insert nick Quick quote
+Quote Post
post Jul 12 2018, 21:15:51
Post #3

Шесть Литров
******
Group: Металариец
Posts: 690
Releases: 0
From: Харьков
On Forums: 8 years 11 months
Thanks: 217 time(s)
Ukraine


Едва ли не самый слабый их альбом. Любой в 70-ых на порядок интереснее.
Go to the top of the page
  Insert nick Quick quote
+Quote Post
post Jul 12 2018, 21:44:43
Post #4


**********
Group: Металариец
Posts: 1,154
Releases: 186
From: Подмосковье
On Forums: 9 years 2 months
Thanks: 2832 time(s)
Russian Federation


ЦИТАТА(Ghostb @ Jul 12 2018, 23:15:51) *
Едва ли не самый слабый их альбом. Любой в 70-ых на порядок интереснее.

Согласен. 72-й и 73-й самые-самые, как по мне.
Go to the top of the page
  Insert nick Quick quote
+Quote Post
post Jul 17 2018, 21:03:42
Post #5

Шесть Литров
******
Group: Металариец
Posts: 690
Releases: 0
From: Харьков
On Forums: 8 years 11 months
Thanks: 217 time(s)
Ukraine


ЦИТАТА(Нигилист @ Jul 12 2018, 23:44:43) *
72-й и 73-й

73 и 74, на мой вкус. Первые два с Коллинзом на вокале тоже очень классные.


Thanks:
(1) smes,
Go to the top of the page
  Insert nick Quick quote
+Quote Post
post Jul 23 2018, 16:51:21
Post #6

Правь статус, ####!111
**************
Group: Металариец
Posts: 2,990
Releases: 1
From: Рейх
On Forums: 12 years 1 month
Thanks: 798 time(s)
Ukraine


Вообще не ожидал такое услышать. Хотя откуда я мог знать как они звучали на первом альбоме, если слушал только их последние работы с Колинзом, а здесь что типа Pink Floyd первых работ, но могу ошибаться
Go to the top of the page
  Insert nick Quick quote
+Quote Post
post Jul 24 2018, 12:49:36
Post #7

Шесть Литров
******
Group: Металариец
Posts: 690
Releases: 0
From: Харьков
On Forums: 8 years 11 months
Thanks: 217 time(s)
Ukraine


ЦИТАТА(smes @ Jul 23 2018, 18:51:21) *
Вообще не ожидал такое услышать. Хотя откуда я мог знать как они звучали на первом альбоме, если слушал только их последние работы с Колинзом

Послушай несколько последующих все же - они гораздо лучше, дебют еще очень сырой.
Go to the top of the page
  Insert nick Quick quote
+Quote Post

Reply to this topicStart new topic
1 User(s) are reading this topic (1 Guests and 0 Anonymous Users)
0 Members:

 



- Lo-Fi Version Support form
Copyrights and abuse reports form
Time is now: 22nd September 2018 - 01:08:21