Welcome Guest ( Log In | Register )

> Правила / Rules

Тут только для чтения лежат низкобитрейтные (<192kbps) релизы, для которых есть аналоги в высокобитрейтных форумах.

Here goes (and stand in read only mode) low bitrate releases (<192kbps) which were already replaced by high bitrate releases in corresponding forums.

> Deafheaven - Ordinary Corrupt Human Love (2018), Post-Metal/Alternative Rock (D)
post Jul 5 2018, 23:54:56
Post #1

Три Литра
***
Group: Завсегдатай
Posts: 227
Releases: 17
On Forums: 8 years 8 months
Thanks: 372 time(s)
United States


(IMG:http://metalarea.org/images/audiocovers/2018_Jul/acov_tid307909_thumb.jpg)

*Artist: Deafheaven
*Album: Ordinary Corrupt Human Love
*Year: 2018
*Genre: Post-Metal/Alternative Rock
*Country: United States (IMG:http://metalarea.org/forum/style_images/flags/United%20States.png)
*Format: mp3@CBR128kbps (IMG:http://metalarea.org/images/bit_low.gif)
*Size: 55MB

Tracklist:
1. You Without End 07:36
2. Honeycomb 11:04
3. Canary Yellow 12:17
4. Near 05:28
5. Glint 10:57
6. Night People 04:07
7. Worthless Animal 10:07
******************************
Total playing time: 1:01:36



Technical info
(IMG:http://metalarea.org/images/spectrogram/2018_Jul/8351e9b013bf318ec111e81833d76371.png)
Input File: Near.MP3
Channels : 2
Sample Rate : 44100
Precision : 16-bit
Duration : 00:05:29.20 = 14517500 samples = 24689.6 CDDA sectors
File Size : 5.26M
Bit Rate : 128k
Sample Encoding: MPEG audio (layer I, II or III)
Comments :
Artist=Deafheaven
Album=Ordinary Corrupt Human Love
Tracknumber=4
Year=2018
Genre=Post-Black Metal



Register


Go to the top of the page
  Insert nick Quick quote
+Quote Post
 
Start new topic
Replies (1 - 2)
post Jul 6 2018, 12:39:36
Post #2

Социопат.Маргинал. Мизантроп.Нигилист. Перверзный нарциссист.
**************
Group: Металариец
Posts: 5,297
Releases: 667
From: Город-герой Ленинград
On Forums: 7 years 8 months
Thanks: 5981 time(s)
Russian Federation


Удивительно,что в тегах блэка нет,какой честный релизер.


Go to the top of the page
  Insert nick Quick quote
+Quote Post
post Jul 6 2018, 19:41:12
Post #3

Правь статус, ####!111
**************
Group: Металариец
Posts: 2,657
Releases: 0
From: Одесса
On Forums: 10 years 7 months
Thanks: 1058 time(s)
Ukraine


stupid hipsters band

Go to the top of the page
  Insert nick Quick quote
+Quote Post

Причина закрытия (DarkHorde 11-07-2018): Deafheaven - Ordinary Corrupt Human Love (2018)
Closed TopicStart new topic
2 User(s) are reading this topic (2 Guests and 0 Anonymous Users)
0 Members:

 



- Lo-Fi Version Support form
Copyrights and abuse reports form
Time is now: 17th October 2018 - 21:31:57