Welcome Guest ( Log In | Register )

> Releases Upload / Добавление релизов

Добавить релиз тут / Click here to add release
Рекомендованные обменники / Recommended file shares

> Where Lovers Rot - Fallen From Grace (2018), Symphonic Doom Metal (D4)
post Jul 7 2018, 09:00:08
Post #1

Serial Uploader
Group Icon
Group: V.I.P
Posts: 32,859
Releases: 31155
From: Lithuania
On Forums: 10 years 1 month
Thanks: 356916 time(s)
Lithuania


(IMG:http://metalarea.org/images/audiocovers/2018_Jul/acov_tid307950_thumb.jpg)

*Artist: Where Lovers Rot
*Album: Fallen From Grace
*Year: 2018
*Genre: Symphonic Doom Metal
*Country: United States (IMG:http://metalarea.org/forum/style_images/flags/United%20States.png)
*Format: mp3@CBR320kbps
*Size: 100MB

Tracklist:
01. Fallen from Grace
02. Into the Dead of Night
03. The Path of Fire and Thorns
04. Immortal Love
05. Only Memories
06. My Grieving Sun
07. The Domain of Lost Souls
******************************
Total playing time: 43:46




Technical info
(IMG:http://metalarea.org/images/spectrogram/2018_Jul/43e41eaed46f61a8b871412e04752a6b.png)
Input File: 02. Into the Dead of Night.mp3
Channels : 2
Sample Rate : 44100
Precision : 16-bit
Duration : 00:06:47.17 = 17956197 samples = 30537.8 CDDA sectors
File Size : 16.3M
Bit Rate : 320k
Sample Encoding: MPEG audio (layer I, II or III)
Comments :
Title=Into the Dead of Night
Artist=Where Lovers Rot
Album=Fallen from Grace
Tracknumber=2/7
Year=2018



Register


Go to the top of the page
  Insert nick Quick quote
+Quote Post
 
Start new topic
Replies (1 - 3)
post Jul 8 2018, 18:52:37
Post #2

бутылка кефира полбатона
**********
Group: Металариец
Posts: 1,011
Releases: 0
From: Курганская обл., Шадринск
On Forums: 9 years 4 months
Thanks: 303 time(s)
Russian Federation


названия в заголовке прям как с крэдлов писались
Go to the top of the page
  Insert nick Quick quote
+Quote Post
post Jul 8 2018, 22:59:12
Post #3

Ёлд ХеллоВяйне
Group Icon
Group: V.I.P
Posts: 25,689
Releases: 130
From: Питер
On Forums: 11 years 8 months
Thanks: 14145 time(s)
Russian Federation


Go to the top of the page
  Insert nick Quick quote
+Quote Post
post Jul 11 2018, 20:50:32
Post #4

brutalcesar
**************
Group: Металариец
Posts: 17,561
Releases: 67
From: Рязань
On Forums: 9 years 6 months
Thanks: 8724 time(s)
Russian Federation


Вообще никак. Никакой гармонии
Go to the top of the page
  Insert nick Quick quote
+Quote Post

Reply to this topicStart new topic
2 User(s) are reading this topic (2 Guests and 0 Anonymous Users)
0 Members:

 



- Lo-Fi Version Support form
Copyrights and abuse reports form
Time is now: 20th July 2018 - 00:16:54