Welcome Guest ( Log In | Register )

> И неформату есть предел.

Рэп/хип-хоп/шансон/поп удаляются. Для них есть свои порталы.

> Akrabu - Kispu Ina Ina Nekelmu (1996), Dark Folk/Ritual/Dark Ambient/Acoustic
post Jul 7 2018, 13:42:02
Post #1

𝕻𝕬𝕹𝕬𝕮𝕰𝕬
******
Group: Металариец
Posts: 598
Releases: 338
On Forums: 6 years 5 months
Thanks: 4699 time(s)
Unknown


(IMG:http://metalarea.org/images/audiocovers/2018_Jul/acov_tid307956_thumb.jpg)

*Artist: Akrabu
*Album: Kispu Ina Ina Nekelmu
*Year: 1996
*Genre: Dark Folk/Ritual/Dark Ambient/Acoustic
*Country: United States (IMG:http://metalarea.org/forum/style_images/flags/United%20States.png)
*Format: mp3@CBR320kbps
*Size: 137MB

Tracklist:
1. Awakening The Serpent Force (Declaration) 00:19
2. Raising The Serpent Force (Conservation And Channeling) 01:54
3. Summoning The Desert Winds From The Scorpion's Domain 02:06
4. Invoking The Chaos Beyond The Stars 03:26
5. Chant Of The Dreaming Ancients, A Curse Unto The Elders 05:32
6. Conjuring The Shadowed Mountains Of Mashu 03:04
7. Procession Through The Desert Lands Of Sumeria 01:02
8. Invoking The Temptress Of The Dark Waters 03:02
9. Summoning The Ancient And Immortal Ones 05:16
10. Spilling The Water Of Life Upon The Stone Altar (The Sacrifice) 02:59
11. Opening The Gate Beyond The Stars 06:45
12. Embracing The Immortal Wine (Communion) 03:02
13. Conjuration Of The Serpentine Eye (Ascending The Path Of The Vampire) 02:47
14. Channeling The Dragon Realm (Awakening) 02:31
15. Towards The Veil Of The Dreaming (Crossing The Veil Of The Abyss) 04:57
16. The Scorpion's Sting (Penetrating The Sleeper's Astral) 04:43
17. Unleashing The Serpent Force 01:43
18. Releasing The Ancient Winds 03:01
******************************
Total playing time: 58:09



Extended info
Formed in 1995 with the release of the "Kakos Draconis" demo,
Akrabu has been the musical outlet of Scorpios Androctonus (Crimson Moon, Sabnack, Possession Ritual).
Consisting entirely of acoustic instruments, Akrabu has continued with this tradition throughout its recordings,
avoiding the use of synthesizers or sampled/synthetic sounds.
Based on Sumerian lore/ritual and mythology, the music of Akrabu is intended to evoke a meditative state
utilizing a variety of acoustic guitars, exotic stringed and wind instruments, various percussion, voices and field recordings.
The hour long album "Kispu Ina Ina Nekelmu" was recorded entirely with acoustic instruments,
chanting and voices without the use of synthesizers.
It was originally released on Dark Age Productions in 1996 as a cassette covered by printed paper sleeve,
wrapped in snakeskin, all in black velveteen bag with printed booklet in a limited edition of 100 copies
and it was reissued on it's 22nd anniversary with a different cover, again on a cassette and for the first time on a CD format.
Recorded at the Serpent Chamber, Covina California on analog 4-track in 1996 and performed by Scorpios Androctonus
with the help of Darke Shadoe on female vocals, conjurations and invocations.


Technical info
(IMG:http://metalarea.org/images/spectrogram/2018_Jul/2800f7127924ed0ac286af92d50a04f1.png)
Input File: 03 - Summoning The Desert Winds From The Scorpion's Domain.mp3
Channels : 2
Sample Rate : 44100
Precision : 16-bit
Duration : 00:02:06.21 = 5565729 samples = 9465.53 CDDA sectors
File Size : 5.33M
Bit Rate : 338k
Sample Encoding: MPEG audio (layer I, II or III)
Comments :
Title=Summoning The Desert Winds From The Scorpion's Domain
Artist=Akrabu
Album=Kispu Ina Ina Nekelmu
Tracknumber=3
Year=1996
Genre=Dark Folk/Ritual



Register


Go to the top of the page
  Insert nick Quick quote
+Quote Post
 
Start new topic
Replies (1 - 5)
post Jul 7 2018, 14:00:00
Post #2

𝕻𝕬𝕹𝕬𝕮𝕰𝕬
******
Group: Металариец
Posts: 598
Releases: 338
On Forums: 6 years 5 months
Thanks: 4699 time(s)
Unknown


Go to the top of the page
  Insert nick Quick quote
+Quote Post
post Jul 8 2018, 02:39:42
Post #3

0,5 минералки и шоколадка
**************
Group: Металариец
Posts: 2,817
Releases: 120
From: Karelia
On Forums: 9 years 6 months
Thanks: 3769 time(s)
NATO


немного раздолбайская, но любопытная вещица.
Go to the top of the page
  Insert nick Quick quote
+Quote Post
post Jul 8 2018, 12:34:27
Post #4

𝕻𝕬𝕹𝕬𝕮𝕰𝕬
******
Group: Металариец
Posts: 598
Releases: 338
On Forums: 6 years 5 months
Thanks: 4699 time(s)
Unknown


QUOTE(shial @ Jul 8 2018, 03:39:42) *
немного раздолбайская, но любопытная вещица.
This is one of the best DAP releases from back then,
alongside Equitant - The Great Lands of Minas Ithil and Valor - La Lune Noire.
And of course the best release from Akrabu, since afterwards this album the band moved to more acoustic paths,
removing most of the dark/ritualistic elements.


Thanks:
(2) abob, shial,
Go to the top of the page
  Insert nick Quick quote
+Quote Post
post Jul 8 2018, 19:05:20
Post #5

0,5 минералки и шоколадка
**************
Group: Металариец
Posts: 2,817
Releases: 120
From: Karelia
On Forums: 9 years 6 months
Thanks: 3769 time(s)
NATO


ЦИТАТА(Panacea @ Jul 8 2018, 14:34:27) *
Equitant - The Great Lands of Minas Ithil

Can you share this?
Go to the top of the page
  Insert nick Quick quote
+Quote Post
post Jul 8 2018, 23:17:08
Post #6

𝕻𝕬𝕹𝕬𝕮𝕰𝕬
******
Group: Металариец
Posts: 598
Releases: 338
On Forums: 6 years 5 months
Thanks: 4699 time(s)
Unknown


QUOTE(shial @ Jul 8 2018, 20:05:20) *
Can you share this?
Velkaarn has already uploaded this one on his blog, you can take it from there:
Asmodian Coven


Thanks:
(1) shial,
Go to the top of the page
  Insert nick Quick quote
+Quote Post

Reply to this topicStart new topic
1 User(s) are reading this topic (1 Guests and 0 Anonymous Users)
0 Members:

 



- Lo-Fi Version Support form
Copyrights and abuse reports form
Time is now: 14th November 2018 - 07:28:47