Welcome Guest ( Log In | Register )

> И неформату есть предел.

Рэп/хип-хоп/шансон/поп удаляются. Для них есть свои порталы.

> Pagan - Black Wash (2018), Post-Hardcore (D)
post Jul 7 2018, 18:18:16
Post #1

Маньяк
**********
Group: Металариец
Posts: 1,306
Releases: 1009
From: Prešov
On Forums: 4 years 3 months
Thanks: 23318 time(s)
Slovakia


(IMG:http://metalarea.org/images/audiocovers/2018_Jul/acov_tid307962_thumb.jpg)

*Artist: Pagan
*Album: Black Wash
*Year: 2018
*Genre: Post-Hardcore
*Country: Australia (IMG:http://metalarea.org/forum/style_images/flags/Australia.png)
*Format: mp3@CBR320kbps
*Size: 92MB

Tracklist:
1. Il Malocchio Si Apre 01:25
2. Death Before Disco 04:01
3. Silver 04:25
4. Imitate Me 03:20
5. Holy Water 03:21
6. Blood Moon 04:12
7. Year Of The Dog 03:19
8. The Greatest Love Songs 02:55
9. Wine And Lace 03:37
10. Fluorescent Snakes 04:03
11. Il Malocchio Si Chiude 03:16
******************************
Total playing time: 37:54



Extended info
EVP Recordings


Technical info
(IMG:http://metalarea.org/images/spectrogram/2018_Jul/4997c9eae734211495a8aa9c54dd2ebd.png)
Input File: 06. Blood Moon.mp3
Channels : 2
Sample Rate : 44100
Precision : 16-bit
Duration : 00:04:12.60 = 11139440 samples = 18944.6 CDDA sectors
File Size : 10.2M
Bit Rate : 323k
Sample Encoding: MPEG audio (layer I, II or III)
Comments :
Title=Blood Moon
Artist=Pagan
Album=Black Wash
Tracknumber=06/11
Year=2018
Genre=Post-Black Metal



Register


Go to the top of the page
  Insert nick Quick quote
+Quote Post
 
Start new topic
Replies (1 - 2)
post Jul 8 2018, 03:57:52
Post #2

Аннигилятор пивА
Group Icon
Group: V.I.P
Posts: 47,380
Releases: 14275
From: Koenigsberg - TILZIT
On Forums: 12 years 1 month
Thanks: 316116 time(s)
Russian Federation


кроме текстов и оккультной атрибутики это современный молодежный школьный панк с кричащей девкой на вокалеъ, к металлу и тем более блэку это точно не имеет отношения



Thanks:
(1) DarkHorde,
Go to the top of the page
  Insert nick Quick quote
+Quote Post
post Jul 12 2018, 20:54:18
Post #3

Девять Литров
*********
Group: Металариец
Posts: 976
Releases: 14
On Forums: 9 years 9 months
Thanks: 791 time(s)
Russian Federation


ЦИТАТА(aesteticvice @ Jul 8 2018, 05:57:52) *
это современный молодежный школьный панк

Не, вот современный молодежный школьный панк (IMG:style_emoticons/default/16.gif)
...
Go to the top of the page
  Insert nick Quick quote
+Quote Post

Reply to this topicStart new topic
2 User(s) are reading this topic (2 Guests and 0 Anonymous Users)
0 Members:

 



- Lo-Fi Version Support form
Copyrights and abuse reports form
Time is now: 20th July 2018 - 11:23:22