Welcome Guest ( Log In | Register )

> Releases Upload / Добавление релизов

Добавить релиз тут / Click here to add release
Рекомендованные обменники / Recommended file shares

> Clapsodra - Endless Agony (2018), Death/Doom Metal
post Jul 8 2018, 19:08:36
Post #1

Правь статус, ####!111
**************
Group: Металариец
Posts: 13,636
Releases: 9556
From: Г.Харьков
On Forums: 6 years 2 months
Thanks: 156809 time(s)
Unknown


(IMG:https://metalarea.org/images/audiocovers/2018_Jul/acov_tid307989_thumb.jpg)

*Artist: Clapsodra
*Album: Endless Agony
*Year: 2018
*Genre: Death/Doom Metal
*Country: Israel (IMG:https://metalarea.org/forum/style_images/flags/Israel.png)
*Format: mp3@CBR320kbps
*Size: 118MB

Tracklist:
1. Genesis 04:30
2. Justified Revolt 04:48
3. The Final Solution 05:01
4. The Void Within 06:07
5. Deported 05:07
6. Left Behind 04:05
7. Endless Agony 04:50
8. Time Goes By 05:23
9. Feel Your Pain 05:03
10. Why 06:40
******************************
Total playing time: 51:34



Preview 3

Extended info
Avi Zadkani Guitars (rhythm), Vocals
Uri Jeffrey Bass, Keyboards, Programming
Kostya Butcher Drums
Leon Vasserman Guitars (lead)


Technical info
(IMG:https://metalarea.org/images/spectrogram/2018_Jul/e9732c5a7f2bc2eff5ca0567a391ecd1.png)
Input File: 03 The Final Solution.mp3
Channels : 2
Sample Rate : 44100
Precision : 16-bit
Duration : 00:05:01.92 = 13314540 samples = 22643.8 CDDA sectors
File Size : 12.1M
Bit Rate : 320k
Sample Encoding: MPEG audio (layer I, II or III)
Comments :
Title=The Final Solution
Artist=Clapsodra
Album=Endless Agony
Tracknumber=3/10
Year=2018
Genre=Death Metal
Discnumber=1/1



Register


Go to the top of the page
  Insert nick Quick quote
+Quote Post
 
Start new topic
Replies (1 - 2)
post Jul 9 2018, 11:16:12
Post #2

Правь статус, ####!111
**************
Group: Металариец
Posts: 13,636
Releases: 9556
From: Г.Харьков
On Forums: 6 years 2 months
Thanks: 156809 time(s)
Unknown


Cloud Mail 320
Register


Thanks:
Go to the top of the page
  Insert nick Quick quote
+Quote Post
post Jul 10 2018, 22:50:04
Post #3

Победитель судьбы
**************
Group: Металариец
Posts: 5,014
Releases: 0
From: Страны Мамонтов
On Forums: 11 years 4 months
Thanks: 1706 time(s)
Antarctica


А вот это акуенно прям. Заходы в death, женский вокал и цепляющие мелодии - то, что нужно
Go to the top of the page
  Insert nick Quick quote
+Quote Post

Reply to this topicStart new topic
1 User(s) are reading this topic (1 Guests and 0 Anonymous Users)
0 Members:

 



- Lo-Fi Version Support form
Copyrights and abuse reports form
Time is now: 17th July 2018 - 04:30:39