Welcome Guest ( Log In | Register )

> Releases Upload / Добавление релизов

Добавить релиз тут / Click here to add release
Рекомендованные обменники / Recommended file shares

> Raging War - Raging War (2018), Old School Thrash Metal
post Jul 9 2018, 08:15:32
Post #1

Аннигилятор пивА
Group Icon
Group: V.I.P
Posts: 47,424
Releases: 14292
From: Koenigsberg - TILZIT
On Forums: 12 years 1 month
Thanks: 316446 time(s)
Russian Federation


(IMG:http://metalarea.org/images/audiocovers/2018_Jul/acov_tid307998_thumb.jpg)

*Artist: Raging War
*Album: Raging War
*Year: 2018
*Genre: Old School Thrash Metal
*Country: Brazil (IMG:http://metalarea.org/forum/style_images/flags/Brazil.png)
*Format: mp3@CBR320kbps
*Size: 91MB

Tracklist:
01. Intro: Prelude to War 01:10
02. Strength for Better Days 04:46
03. Third World 04:54
04. Enforced System 04:40
05. The Meaning 04:34
06. Hell on Earth 04:02
07. Black Forest 03:44
08. Corroding Chemistry 04:01
09. Entrails of a Corrupted Mind 03:40
10. Bastard Dogs 03:54
******************************
Total playing time: 39:25




Extended info
Ricardo Lima - Bass, Vocals (backing) (2016-present) See also: Insurgentes, ex-Morbus Inferno, ex-Monster Truck
Roberto Batista Barth - Drums (2016-present) See also: Soulthern, ex-Monster Truck
Wellington Rodrigues de Oliveira - Guitars (2016-present) See also: ex-Monster Truck, Abatter
Rudi Vetter - Vocals (lead) (2016-present) See also: ex-Mastervoid


Technical info
(IMG:http://metalarea.org/images/spectrogram/2018_Jul/0cb7d5f588b73d79f6c885cdc76a3eda.png)
Input File: 07 - Black Forest.mp3
Channels : 2
Sample Rate : 44100
Precision : 16-bit
Duration : 00:03:44.27 = 9890439 samples = 16820.5 CDDA sectors
File Size : 9.07M
Bit Rate : 324k
Sample Encoding: MPEG audio (layer I, II or III)
Comments :
Title=Black Forest
Artist=Raging War
Album=Raging War
Tracknumber=7/10
Year=2018



Register


Go to the top of the page
  Insert nick Quick quote
+Quote Post
 
Start new topic
Replies (1 - 4)
post Jul 9 2018, 08:54:56
Post #2

Аннигилятор пивА
Group Icon
Group: V.I.P
Posts: 47,424
Releases: 14292
From: Koenigsberg - TILZIT
On Forums: 12 years 1 month
Thanks: 316446 time(s)
Russian Federation


MIRROR
Register



Go to the top of the page
  Insert nick Quick quote
+Quote Post
post Jul 10 2018, 19:42:57
Post #3

Четыре Литра
****
Group: Металариец
Posts: 339
Releases: 0
From: South Of Heaven
On Forums: 10 years 11 months
Thanks: 98 time(s)
Ukraine


По первому прослушиванию впечатления самые приятные, хороший трэшняк! (IMG:style_emoticons/default/metaler.gif)
Релизёру вери сенкс ! (IMG:style_emoticons/default/9.gif) (IMG:style_emoticons/default/9.gif)
Go to the top of the page
  Insert nick Quick quote
+Quote Post
post Jul 10 2018, 21:01:20
Post #4

_ - = # Thrashogolic # = - _ ... а давайте поржём все вместе
**************
Group: Металариец
Posts: 20,898
Releases: 4444
From: 404
On Forums: 8 years 1 month
Thanks: 27052 time(s)
Ukraine



Years active:
2005-2010 (as Monster Truck), 2013-2016 (as Monster Truck), 2016-present

Monster Truck - Strength For Better Days [ep] (2009)
Go to the top of the page
  Insert nick Quick quote
+Quote Post
post Jul 11 2018, 10:33:49
Post #5

Маньяк
**********
Group: Металариец
Posts: 1,122
Releases: 0
From: Dnipro
On Forums: 10 years 1 week
Thanks: 298 time(s)
Ukraine


Обложка как фото Грозного периода войны.
Go to the top of the page
  Insert nick Quick quote
+Quote Post

Reply to this topicStart new topic
1 User(s) are reading this topic (1 Guests and 0 Anonymous Users)
0 Members:

 



- Lo-Fi Version Support form
Copyrights and abuse reports form
Time is now: 22nd July 2018 - 09:57:06