Welcome Guest ( Log In | Register )

> Releases Upload / Добавление релизов

Добавить релиз тут / Click here to add release
Рекомендованные обменники / Recommended file shares

 
Reply to this topicStart new topic
> Shitwater Healing - Beef Traxx (Psycho Sin Diss Tracks) [ep] (2018), Grindcore
post Jul 9 2018, 12:56:47
Post #1

Serial Uploader
Group Icon
Group: V.I.P
Posts: 32,863
Releases: 31159
From: Lithuania
On Forums: 10 years 1 month
Thanks: 356969 time(s)
Lithuania


(IMG:https://metalarea.org/images/audiocovers/2018_Jul/acov_tid308016_thumb.jpg)

*Artist: Shitwater Healing
*Album: Beef Traxx (Psycho Sin Diss Tracks) [ep]
*Year: 2018
*Genre: Grindcore
*Country: Mexico (IMG:https://metalarea.org/forum/style_images/flags/Mexico.png)
*Format: mp3@CBR320kbps
*Size: 16MB

Tracklist:
01. 30 Years Of Being Straight Fucking Garbage 00:43
02. Carlo Still Needs To Wear Floaties To Swim In The Shallow End Of The Pool 00:39
03. Wearing A Psycho Sin T-Shirt Is A Death Sentence 01:12
04. Carlo Casanova: How To Ride Your Own Cock In 6 Easy Steps! 01:04
05. Carlo Accidentally Mistaken As A Dude 01:22
06. We Get It, Your Band Sucks Ass 00:12
07. You Played Yourself, DJ Khaled-Looking Motherfucker 01:37
******************************
Total playing time: 6:49



Technical info
(IMG:https://metalarea.org/images/spectrogram/2018_Jul/c1e2070f8efef358a323861b95e5c719.png)
Input File: 02. Carlo Still Needs to Wear Floaties to Swim in the Shallow End of the Pool.mp3
Channels : 2
Sample Rate : 44100
Precision : 16-bit
Duration : 00:00:39.00 = 1719988 samples = 2925.15 CDDA sectors
File Size : 1.67M
Bit Rate : 343k
Sample Encoding: MPEG audio (layer I, II or III)
Comments :
Title=Carlo Still Needs to Wear Floaties to Swim in the Shallow End of the Pool
Artist=Shitwater Healing
Album=BEEF TRAXX(Psycho Sin Diss Tracks)
Tracknumber=2
Year=2018



Register


Thanks:
(1) Rosen,
Go to the top of the page
  Insert nick Quick quote
+Quote Post

Reply to this topicStart new topic
1 User(s) are reading this topic (1 Guests and 0 Anonymous Users)
0 Members:

 



- Lo-Fi Version Support form
Copyrights and abuse reports form
Time is now: 22nd July 2018 - 10:06:44