Welcome Guest ( Log In | Register )

 
Reply to this topicStart new topic
> Munging Corpse - 2017 Demo [demo] (2017), Brutal Death Metal/Goregrind
post Jul 9 2018, 13:12:16
Post #1

Serial Uploader
Group Icon
Group: V.I.P
Posts: 33,281
Releases: 31557
From: Lithuania
On Forums: 10 years 5 months
Thanks: 360512 time(s)
Lithuania


(IMG:https://metalarea.org/images/audiocovers/2018_Jul/acov_tid308017_thumb.jpg)

*Artist: Munging Corpse
*Album: 2017 Demo [demo]
*Year: 2017
*Genre: Brutal Death Metal/Goregrind
*Country: United States (IMG:https://metalarea.org/forum/style_images/flags/United%20States.png)
*Format: mp3@CBR320kbps
*Size: 34MB

Tracklist:
01. Limb Removal Orgy 02:22
02. Extermination Camp 02:30
03. Trauma Before Death 02:27
04. Unpredictably Violent Re-Animation 02:10
05. Synthetic Corpse 05:13
******************************
Total playing time: 14:42



(IMG:https://metalarea.org/images/youtube.png)

Technical info
(IMG:https://metalarea.org/images/spectrogram/2018_Jul/ab659fb928bc0a59e312e4330ce22e9f.png)
Input File: 02. Extermination Camp.mp3
Channels : 2
Sample Rate : 44100
Precision : 16-bit
Duration : 00:02:30.32 = 6628936 samples = 11273.7 CDDA sectors
File Size : 6.10M
Bit Rate : 325k
Sample Encoding: MPEG audio (layer I, II or III)
Comments :
Title=Extermination Camp
Artist=Munging Corpse
Album=2017 Demo
Tracknumber=2
Year=2017



Register


Thanks:
(2) Rosen, uk82,
Go to the top of the page
  Insert nick Quick quote
+Quote Post

Reply to this topicStart new topic
1 User(s) are reading this topic (1 Guests and 0 Anonymous Users)
0 Members:

 



- Lo-Fi Version Support form
Copyrights and abuse reports form
Time is now: 16th November 2018 - 02:28:34