Welcome Guest ( Log In | Register )

> Releases Upload / Добавление релизов

Добавить релиз тут / Click here to add release
Рекомендованные обменники / Recommended file shares

 
Reply to this topicStart new topic
> Munging Corpse - Morbid Housing [ep] (2018), Brutal Death Metal/Goregrind
post Jul 9 2018, 13:25:44
Post #1

Serial Uploader
Group Icon
Group: V.I.P
Posts: 32,863
Releases: 31159
From: Lithuania
On Forums: 10 years 1 month
Thanks: 356968 time(s)
Lithuania


(IMG:https://metalarea.org/images/audiocovers/2018_Jul/acov_tid308018_thumb.jpg)

*Artist: Munging Corpse
*Album: Morbid Housing [ep]
*Year: 2018
*Genre: Brutal Death Metal/Goregrind
*Country: United States (IMG:https://metalarea.org/forum/style_images/flags/United%20States.png)
*Format: mp3@CBR320kbps
*Size: 36MB

Tracklist:
01. Carried Through The Woods In A Trash Bag 03:14
02. Autopsy Table 02:15
03. The Mask Hides A Hideous Face 05:18
04. Morbid Housing 04:34
******************************
Total playing time: 15:21



(IMG:https://metalarea.org/images/youtube.png)

Technical info
(IMG:https://metalarea.org/images/spectrogram/2018_Jul/6519830ae44f2292c7b74796131ed5ae.png)
Input File: 02. Autopsy Table.mp3
Channels : 2
Sample Rate : 44100
Precision : 16-bit
Duration : 00:02:15.22 = 5963070 samples = 10141.3 CDDA sectors
File Size : 5.62M
Bit Rate : 333k
Sample Encoding: MPEG audio (layer I, II or III)
Comments :
Title=Autopsy Table
Artist=Munging Corpse
Album=Morbid Housing EP
Tracknumber=2
Year=2018



Register


Thanks:
(2) Rosen, uk82,
Go to the top of the page
  Insert nick Quick quote
+Quote Post

Reply to this topicStart new topic
2 User(s) are reading this topic (2 Guests and 0 Anonymous Users)
0 Members:

 



- Lo-Fi Version Support form
Copyrights and abuse reports form
Time is now: 22nd July 2018 - 09:59:02