Welcome Guest ( Log In | Register )

> Releases Upload / Добавление релизов

Добавить релиз тут / Click here to add release
Рекомендованные обменники / Recommended file shares

 
Reply to this topicStart new topic
> Munging Corpse - Slow Rot Session [ep] (2018), Brutal Death Metal/Goregrind
post Jul 9 2018, 13:41:05
Post #1

Serial Uploader
Group Icon
Group: V.I.P
Posts: 32,863
Releases: 31159
From: Lithuania
On Forums: 10 years 1 month
Thanks: 356969 time(s)
Lithuania


(IMG:https://metalarea.org/images/audiocovers/2018_Jul/acov_tid308019_thumb.jpg)

*Artist: Munging Corpse
*Album: Slow Rot Session [ep]
*Year: 2018
*Genre: Brutal Death Metal/Goregrind
*Country: United States (IMG:https://metalarea.org/forum/style_images/flags/United%20States.png)
*Format: mp3@CBR320kbps
*Size: 50MB

Tracklist:
01. Severe Organ Failure And Reanimation 02:42
02. The Authorities Are Dead Too 04:50
03. Rotting Alive 05:22
04. Save Yourself 04:46
05. Undead Or Suicide 03:42
******************************
Total playing time: 21:22



(IMG:https://metalarea.org/images/youtube.png)

Technical info
(IMG:https://metalarea.org/images/spectrogram/2018_Jul/0e837b599e2499d7b8168adb188a0957.png)
Input File: 02. The Authorities are Dead too.mp3
Channels : 2
Sample Rate : 44100
Precision : 16-bit
Duration : 00:04:50.81 = 12824765 samples = 21810.8 CDDA sectors
File Size : 11.8M
Bit Rate : 325k
Sample Encoding: MPEG audio (layer I, II or III)
Comments :
Title=The Authorities are Dead too
Artist=Munging Corpse
Album=Slow Rot Session
Tracknumber=2
Year=2018



Register


Thanks:
(2) Rosen, uk82,
Go to the top of the page
  Insert nick Quick quote
+Quote Post

Reply to this topicStart new topic
2 User(s) are reading this topic (2 Guests and 0 Anonymous Users)
0 Members:

 



- Lo-Fi Version Support form
Copyrights and abuse reports form
Time is now: 22nd July 2018 - 10:06:29