Welcome Guest ( Log In | Register )

> Releases Upload / Добавление релизов

Добавить релиз тут / Click here to add release
Рекомендованные обменники / Recommended file shares

 
Reply to this topicStart new topic
> Munging Corpse - Blood Soaked Woods [ep] (2018), Brutal Death Metal/Goregrind
post Jul 9 2018, 13:56:07
Post #1

Serial Uploader
Group Icon
Group: V.I.P
Posts: 32,863
Releases: 31159
From: Lithuania
On Forums: 10 years 1 month
Thanks: 356968 time(s)
Lithuania


(IMG:https://metalarea.org/images/audiocovers/2018_Jul/acov_tid308020_thumb.jpg)

*Artist: Munging Corpse
*Album: Blood Soaked Woods [ep]
*Year: 2018
*Genre: Brutal Death Metal/Goregrind
*Country: United States (IMG:https://metalarea.org/forum/style_images/flags/United%20States.png)
*Format: mp3@CBR320kbps
*Size: 10MB

Tracklist:
01. Machete Embedded Skull 01:40
02. Extreme Debridement 00:34
03. Blood Soaked Woods 02:06
******************************
Total playing time: 4:20



(IMG:https://metalarea.org/images/youtube.png)

Technical info
(IMG:https://metalarea.org/images/spectrogram/2018_Jul/b1684de29d4b395c363c3b1050f71ba6.png)
Input File: 02. Extreme Debridement.mp3
Channels : 2
Sample Rate : 44100
Precision : 16-bit
Duration : 00:00:34.93 = 1540281 samples = 2619.53 CDDA sectors
File Size : 1.54M
Bit Rate : 352k
Sample Encoding: MPEG audio (layer I, II or III)
Comments :
Title=Extreme Debridement
Artist=Munging Corpse
Album=Blood Soaked Woods EP
Tracknumber=2
Year=2018



Register


Thanks:
(2) Rosen, uk82,
Go to the top of the page
  Insert nick Quick quote
+Quote Post

Reply to this topicStart new topic
2 User(s) are reading this topic (2 Guests and 0 Anonymous Users)
0 Members:

 



- Lo-Fi Version Support form
Copyrights and abuse reports form
Time is now: 22nd July 2018 - 09:58:28