Welcome Guest ( Log In | Register )

> Potion - Seven Sorcerers/Gravemaker [ep] (2017), Doom Metal
post Jul 9 2018, 15:50:11
Post #1

Serpent Doom
**************
Group: Металариец
Posts: 2,092
Releases: 646
From: Moscow region
On Forums: 10 years 2 weeks
Thanks: 11524 time(s)
Russian Federation


(IMG:http://metalarea.org/images/audiocovers/2018_Jul/acov_tid308021_thumb.jpg)

*Artist: Potion
*Album: Seven Sorcerers/Gravemaker [ep]
*Year: 2017
*Genre: Doom Metal
*Country: Australia (IMG:http://metalarea.org/forum/style_images/flags/Australia.png)
*Format: mp3@CBR320kbps
*Size: 43MB

Tracklist:
1. Seven Sorcerers 08:59
2. Gravemaker 08:21
******************************
Total playing time: 17:20



Technical info
(IMG:http://metalarea.org/images/spectrogram/2018_Jul/1e978d3e23fc8f7868e64273182102bb.png)
Input File: POTION - Seven Sorcerers - Gravemaker - 02 Gravemaker.mp3
Channels : 2
Sample Rate : 44100
Precision : 16-bit
Duration : 00:08:21.58 = 22119590 samples = 37618.4 CDDA sectors
File Size : 20.2M
Bit Rate : 323k
Sample Encoding: MPEG audio (layer I, II or III)
Comments :
Title=Gravemaker
Artist=POTION
Album=Seven Sorcerers / Gravemaker
Tracknumber=2
Year=2017



Register


Go to the top of the page
  Insert nick Quick quote
+Quote Post
 
Start new topic
Replies (1 - 1)
post Jul 15 2018, 05:09:16
Post #2

Правь статус, ####!111
**************
Group: Металариец
Posts: 2,062
Releases: 23
From: Nakhodka
On Forums: 8 years 3 months
Thanks: 1641 time(s)
Russian Federation


Ощущение, что podspizdili мелодий у Электриков. А вообще вполне слухабельно.
Возьму на заметку и подожду полноформатник.
Go to the top of the page
  Insert nick Quick quote
+Quote Post

Reply to this topicStart new topic
1 User(s) are reading this topic (1 Guests and 0 Anonymous Users)
0 Members:

 



- Lo-Fi Version Support form
Copyrights and abuse reports form
Time is now: 20th September 2018 - 11:46:23