Welcome Guest ( Log In | Register )

> Releases Upload / Добавление релизов

Добавить релиз тут / Click here to add release
Рекомендованные обменники / Recommended file shares

> Infernal Doom - Imminent End (2018), Progressive/Technical Death Metal
post Jul 9 2018, 17:57:06
Post #1

Аннигилятор пивА
Group Icon
Group: V.I.P
Posts: 47,424
Releases: 14292
From: Koenigsberg - TILZIT
On Forums: 12 years 1 month
Thanks: 316446 time(s)
Russian Federation


(IMG:http://metalarea.org/images/audiocovers/2018_Jul/acov_tid308023_thumb.jpg)

*Artist: Infernal Doom
*Album: Imminent End
*Year: 2018
*Genre: Progressive/Technical Death Metal
*Country: Chile (IMG:http://metalarea.org/forum/style_images/flags/Chile.png)
*Format: mp3@CBR320kbps
*Size: 88MB

Tracklist:
1. Inminent End 03:51
2. The Window of Desolation 05:18
3. Lost Empathy 04:29
4. The Agreed Signal 03:41
5. What Came After (Instrumental) 02:57
6. The Chosen One 04:24
7. Riot 04:20
8. Questions Without Answers 04:02
9. Damn Bird (Instrumental) 02:42
******************************
Total playing time: 35:44




Extended info
Technical old school death metal band coming from Punta Arenas, Chile, their 4th release to date.
Jaime Bustamante - Vocals, Guitars (2000-present) See also: ex-Demonflesh, ex-Exanimatvm, ex-Frozen
Miguel Lopez - Bass (2007-present) See also: ex-Vastago
Hermes Leiva - Drums (2012-present) See also: Inner Dystopia, ex-Extirped, ex-Frozen


Technical info
(IMG:http://metalarea.org/images/spectrogram/2018_Jul/cf229bd17d8ea9f5a063c8a63d1ac58f.png)
Input File: 04 The Agreed Signal.mp3
Channels : 2
Sample Rate : 44100
Precision : 16-bit
Duration : 00:03:41.32 = 9760388 samples = 16599.3 CDDA sectors
File Size : 9.22M
Bit Rate : 333k
Sample Encoding: MPEG audio (layer I, II or III)
Comments :
Title=The Agreed Signal
Artist=Infernal Doom
Album=Imminent End
Tracknumber=4/9
Year=2018
Genre=Death Metal
Discnumber=1/1



Register


Go to the top of the page
  Insert nick Quick quote
+Quote Post
 
Start new topic
Replies (1 - 4)
post Jul 10 2018, 03:42:42
Post #2

Аннигилятор пивА
Group Icon
Group: V.I.P
Posts: 47,424
Releases: 14292
From: Koenigsberg - TILZIT
On Forums: 12 years 1 month
Thanks: 316446 time(s)
Russian Federation


Technical old school death metal band coming from Punta Arenas, Chile, their 4th release to date.
mirror
Register

Register




Go to the top of the page
  Insert nick Quick quote
+Quote Post
post Jul 11 2018, 09:48:49
Post #3

Аннигилятор пивА
Group Icon
Group: V.I.P
Posts: 47,424
Releases: 14292
From: Koenigsberg - TILZIT
On Forums: 12 years 1 month
Thanks: 316446 time(s)
Russian Federation


Infernal Doom - Nobody Said It Was Easy (2016)
очень советую обратить пристальное внимание, он немного другой, чуть ближе к классике Death (Symbolic era), Cinyc or Atheist.... пожещще тока и в своем ключе, на сабже более цивильное развитие, я бы сказал


Thanks:
(1) Evilded,
Go to the top of the page
  Insert nick Quick quote
+Quote Post
post Jul 12 2018, 14:29:10
Post #4

Четыре Литра
****
Group: Металариец
Posts: 335
Releases: 0
From: Нижний Новгород
On Forums: 11 years 11 months
Thanks: 97 time(s)
Russian Federation


Я выскажусь иначе: звучание ближе не то чтобы к Death, но к рутовому, гулкому death-metal; мелодика вполне соответствует олд-скульному дэту; техно- без фанатизма, сбалансированно. Всем любителям олд-скул дэта обязательно пробовать ...
Go to the top of the page
  Insert nick Quick quote
+Quote Post
post Jul 15 2018, 19:20:11
Post #5

В чистоте и единстве:мысль-слово-дело
**************
Group: Металариец
Posts: 2,254
Releases: 9
From: Киев
On Forums: 11 years 2 weeks
Thanks: 1241 time(s)
Ukraine


Не вкатило. Ужасный звук. И ничего захватывающего.
Go to the top of the page
  Insert nick Quick quote
+Quote Post

Reply to this topicStart new topic
2 User(s) are reading this topic (2 Guests and 0 Anonymous Users)
0 Members:

 



- Lo-Fi Version Support form
Copyrights and abuse reports form
Time is now: 22nd July 2018 - 09:57:54