Welcome Guest ( Log In | Register )

> Releases Upload / Добавление релизов

Добавить релиз тут / Click here to add release
Рекомендованные обменники / Recommended file shares

 
Reply to this topicStart new topic
> Hatehordes - Sexual Rites [demo] (2009), Raw Black Metal (D6)
post Jul 9 2018, 18:51:18
Post #1

Правь статус, ####!111
**************
Group: Металариец
Posts: 3,242
Releases: 600
From: Brazil
On Forums: 6 years 5 months
Thanks: 24351 time(s)
Brazil


(IMG:https://metalarea.org/images/audiocovers/2018_Jul/acov_tid308024_thumb.jpg)

*Artist: Hatehordes
*Album: Sexual Rites [demo]
*Year: 2009
*Genre: Raw Black Metal
*Country: Spain (IMG:https://metalarea.org/forum/style_images/flags/Spain.png)
*Format: mp3@CBR320kbps
*Size: 40MB

Tracklist:
1. In the Black Fullmoon Waves 01:43
2. Sexual Rites 02:33
3. Rise of the Black Hordes 02:33
4. Of Infernal Winter and Sacrifices 02:07
5. Visions in Black 03:15
6. Death & Funeral March of the Cursed Warrior 03:09
******************************
Total playing time: 15:20

Extended info
Flac-rip + scans

Tracks 1 and 2 are taken from "Sexual" (demo II, 2008).
Tracks 3 to 6 are bonus tracks taken from an unreleased 2007 demo (demo I).


Technical info
(IMG:https://metalarea.org/images/spectrogram/2018_Jul/e2bb2e2511159d3f8b0bd4863cd8fb60.png)
Input File: (01) [HateHordes] In The Black Fullmoon Waves.mp3
Channels : 2
Sample Rate : 44100
Precision : 16-bit
Duration : 00:01:42.69 = 4528761 samples = 7701.97 CDDA sectors
File Size : 4.11M
Bit Rate : 320k
Sample Encoding: MPEG audio (layer I, II or III)
Comments :
Title=In The Black Fullmoon Waves
Artist=HateHordes
Album=Sexual Rites
Tracknumber=01
Genre=



Register


Go to the top of the page
  Insert nick Quick quote
+Quote Post

Reply to this topicStart new topic
1 User(s) are reading this topic (1 Guests and 0 Anonymous Users)
0 Members:

 



- Lo-Fi Version Support form
Copyrights and abuse reports form
Time is now: 22nd July 2018 - 10:04:25