Welcome Guest ( Log In | Register )

> Releases Upload / Добавление релизов

Добавить релиз тут / Click here to add release
Рекомендованные обменники / Recommended file shares

> In Demoni - The Grand Slam (2018), Brutal Death Metal
post Jul 9 2018, 19:20:30
Post #1

Аннигилятор пивА
Group Icon
Group: V.I.P
Posts: 47,424
Releases: 14292
From: Koenigsberg - TILZIT
On Forums: 12 years 1 month
Thanks: 316447 time(s)
Russian Federation


(IMG:http://metalarea.org/images/audiocovers/2018_Jul/acov_tid308025_thumb.jpg)

*Artist: In Demoni
*Album: The Grand Slam
*Year: 2018
*Genre: Brutal Death Metal
*Country: Germany (IMG:http://metalarea.org/forum/style_images/flags/Germany.png)
*Format: mp3@CBR320kbps
*Size: 92MB

Tracklist:
01. Viva La Slam
02. Cockslamming
03. Yes We Come
04. Professor Cambium Dick
05. I Don't Fuck I Mathturbate
06. The Roaring Twenties
07. Pizza Slamami
08. Sodom Superstar
09. Balls Of Bigfoot
10. It's Not How It Sounds Like
11. Exercises In Stupidity
12. Supoesto Demonio
******************************
Total playing time: 39:04




Extended info
Steiner - Gesang
Carsten - Gitarre, Pipa
Mathi - Gitarre
David - Bass
Erik - Drums


Technical info
(IMG:http://metalarea.org/images/spectrogram/2018_Jul/b9789800393f416d081633836b3a6295.png)
Input File: 02 - Cockslamming.mp3
Channels : 2
Sample Rate : 44100
Precision : 16-bit
Duration : 00:03:11.80 = 8458424 samples = 14385.1 CDDA sectors
File Size : 7.80M
Bit Rate : 325k
Sample Encoding: MPEG audio (layer I, II or III)
Comments :
Title=Cockslamming
Artist=In Demoni
Album=The Grand Slam
Tracknumber=2/12
Year=2018



Register


Go to the top of the page
  Insert nick Quick quote
+Quote Post
 
Start new topic
Replies (1 - 1)
post Jul 10 2018, 03:44:39
Post #2

Аннигилятор пивА
Group Icon
Group: V.I.P
Posts: 47,424
Releases: 14292
From: Koenigsberg - TILZIT
On Forums: 12 years 1 month
Thanks: 316447 time(s)
Russian Federation


mirror
Register

Register


Я так увлекся клипом, что музыка фоном прошла, а там есть че послушать, бодрая резня.




Thanks:
Go to the top of the page
  Insert nick Quick quote
+Quote Post

Reply to this topicStart new topic
1 User(s) are reading this topic (1 Guests and 0 Anonymous Users)
0 Members:

 



- Lo-Fi Version Support form
Copyrights and abuse reports form
Time is now: 22nd July 2018 - 10:04:47