Welcome Guest ( Log In | Register )

> In Demoni - The Grand Slam (2018), Brutal Death Metal
post Jul 9 2018, 19:20:30
Post #1

Аннигилятор пивА
Group Icon
Group: V.I.P
Posts: 49,546
Releases: 15321
From: Koenigsberg - TILZIT
On Forums: 12 years 4 months
Thanks: 334024 time(s)
Russian Federation


(IMG:http://metalarea.org/images/audiocovers/2018_Jul/acov_tid308025_thumb.jpg)

*Artist: In Demoni
*Album: The Grand Slam
*Year: 2018
*Genre: Brutal Death Metal
*Country: Germany (IMG:http://metalarea.org/forum/style_images/flags/Germany.png)
*Format: mp3@CBR320kbps
*Size: 92MB

Tracklist:
01. Viva La Slam
02. Cockslamming
03. Yes We Come
04. Professor Cambium Dick
05. I Don't Fuck I Mathturbate
06. The Roaring Twenties
07. Pizza Slamami
08. Sodom Superstar
09. Balls Of Bigfoot
10. It's Not How It Sounds Like
11. Exercises In Stupidity
12. Supoesto Demonio
******************************
Total playing time: 39:04




Extended info
Steiner - Gesang
Carsten - Gitarre, Pipa
Mathi - Gitarre
David - Bass
Erik - Drums


Technical info
(IMG:http://metalarea.org/images/spectrogram/2018_Jul/b9789800393f416d081633836b3a6295.png)
Input File: 02 - Cockslamming.mp3
Channels : 2
Sample Rate : 44100
Precision : 16-bit
Duration : 00:03:11.80 = 8458424 samples = 14385.1 CDDA sectors
File Size : 7.80M
Bit Rate : 325k
Sample Encoding: MPEG audio (layer I, II or III)
Comments :
Title=Cockslamming
Artist=In Demoni
Album=The Grand Slam
Tracknumber=2/12
Year=2018



Register


Go to the top of the page
  Insert nick Quick quote
+Quote Post
 
Start new topic
Replies (1 - 2)
post Jul 10 2018, 03:44:39
Post #2

Аннигилятор пивА
Group Icon
Group: V.I.P
Posts: 49,546
Releases: 15321
From: Koenigsberg - TILZIT
On Forums: 12 years 4 months
Thanks: 334024 time(s)
Russian Federation


mirror
Register

Register


Я так увлекся клипом, что музыка фоном прошла, а там есть че послушать, бодрая резня.




Go to the top of the page
  Insert nick Quick quote
+Quote Post
post Aug 2 2018, 12:45:53
Post #3

Самый Тихий Час
**************
Group: Металариец
Posts: 5,603
Releases: 0
On Forums: 8 years 11 months
Thanks: 2438 time(s)
Unknown


ЦИТАТА(aesteticvice @ 10th July 2018 - 05:44:39) *
Я так увлекся клипом,

у них и обложка с сюжетом))))
ЦИТАТА(aesteticvice @ 10th July 2018 - 05:44:39) *
бодрая резня.

эбсолютли
Go to the top of the page
  Insert nick Quick quote
+Quote Post

Reply to this topicStart new topic
2 User(s) are reading this topic (2 Guests and 0 Anonymous Users)
0 Members:

 



- Lo-Fi Version Support form
Copyrights and abuse reports form
Time is now: 22nd October 2018 - 14:52:50