Welcome Guest ( Log In | Register )

> In Demoni - So Trieb Sich Die Welt Ins Dunkel (2013), Death Metal
post Jul 9 2018, 20:18:23
Post #1

Аннигилятор пивА
Group Icon
Group: V.I.P
Posts: 48,790
Releases: 14916
From: Koenigsberg - TILZIT
On Forums: 12 years 3 months
Thanks: 326969 time(s)
Russian Federation


(IMG:http://metalarea.org/images/audiocovers/2018_Jul/acov_tid308026_thumb.jpg)

*Artist: In Demoni
*Album: So Trieb Sich Die Welt Ins Dunkel
*Year: 2013
*Genre: Death Metal
*Country: Germany (IMG:http://metalarea.org/forum/style_images/flags/Germany.png)
*Format: mp3@VBR301kbps
*Size: 133MB

Tracklist:
01. Intro 02:12
02. Prophecy Of a Wormeaten Crone 04:22
03. Amorphic Messiah of Latent Maggots 03:34
04. Conquering Night of Evoked Kha-ooz 04:45
05. Ereschkigal 05:11
06. Abstrakte Kunst Des Unterwerfens 05:11
07. The Rising of Dead Kings 05:30
08. Reverse Creeping Worm 05:20
09. Proclaim the Worlds End 06:27
10. Mutilized Hysteric Red Rage 06:41
11. Madness Calls the Suicide Winds 03:28
12. Isolated Wicked Flesh 05:37
13. Outro 03:22
******************************
Total playing time: 1:01:40




Extended info
Steiner - Gesang
Carsten - Gitarre, Pipa
Mathi - Gitarre
David - Bass
Erik - Drums



Technical info
(IMG:http://metalarea.org/images/spectrogram/2018_Jul/287bc4e9a010264232b7a75cebf18777.png)
Input File: 3-Amorphic Messiah of Latent Maggots-3.mp3
Channels : 2
Sample Rate : 44100
Precision : 16-bit
Duration : 00:03:34.15 = 9444059 samples = 16061.3 CDDA sectors
File Size : 8.22M
Bit Rate : 307k
Sample Encoding: MPEG audio (layer I, II or III)
Comments :
Title=Amorphic Messiah of Latent Maggots
Artist=In Demoni
Album=So Treib Sich Die Welt Ins Dunkel
Tracknumber=3
Year=2013
Genre=Metal



Register


Go to the top of the page
  Insert nick Quick quote
+Quote Post
 
Start new topic
Replies (1 - 1)
post Jul 10 2018, 03:51:13
Post #2

Аннигилятор пивА
Group Icon
Group: V.I.P
Posts: 48,790
Releases: 14916
From: Koenigsberg - TILZIT
On Forums: 12 years 3 months
Thanks: 326969 time(s)
Russian Federation


mirror
Register

Register


Thanks:
Go to the top of the page
  Insert nick Quick quote
+Quote Post

Reply to this topicStart new topic
1 User(s) are reading this topic (1 Guests and 0 Anonymous Users)
0 Members:

 



- Lo-Fi Version Support form
Copyrights and abuse reports form
Time is now: 20th September 2018 - 11:20:39