Welcome Guest ( Log In | Register )

> Wolfen - Rise Of The Lycans (2018), Power/Thrash Metal (D)
post Jul 9 2018, 20:21:08
Post #1

Правь статус, ####!111
**************
Group: Металариец
Posts: 14,946
Releases: 10243
From: Г.Харьков
On Forums: 6 years 6 months
Thanks: 168955 time(s)
Unknown


(IMG:https://metalarea.org/images/audiocovers/2018_Jul/acov_tid308027_thumb.jpg)

*Artist: Wolfen
*Album: Rise Of The Lycans
*Year: 2018
*Genre: Power/Thrash Metal
*Country: Germany (IMG:https://metalarea.org/forum/style_images/flags/Germany.png)
*Format: mp3@CBR320kbps
*Size: 115MB

Tracklist:
1. Rebirth of the Regulators 05:12
2. Genetic Sleepers 05:19
3. Forgotten Dreams 06:18
4. Xenophobia 06:06
5. Science & Religion 06:20
6. Timekeeper 06:10
7. Rise of the Lycans 05:41
8. Succubus 06:29
9. New World Order 07:14
******************************
Total playing time: 54:49



Extended info
Andreas von Lipinski Vocals
Frank J. Noras Guitars, Vocals (backing)
Nicolas Filter Bass
Sigfried Grütz Drums
Andreas Doetsch Guitars


Technical info
(IMG:https://metalarea.org/images/spectrogram/2018_Jul/adfff670b486a0a5902f57ed280c3399.png)
Input File: 02. Genetic Sleepers.mp3
Channels : 2
Sample Rate : 44100
Precision : 16-bit
Duration : 00:05:19.57 = 14093169 samples = 23968 CDDA sectors
File Size : 12.8M
Bit Rate : 321k
Sample Encoding: MPEG audio (layer I, II or III)
Comments :
Title=Genetic Sleepers
Artist=Wolfen
Album=Rise of the Lycans
Tracknumber=2
Genre=Метал
Discnumber=1



Register


Go to the top of the page
  Insert nick Quick quote
+Quote Post
 
Start new topic
Replies (1 - 2)
post Jul 10 2018, 05:26:27
Post #2

Аннигилятор пивА
Group Icon
Group: V.I.P
Posts: 50,307
Releases: 15596
From: Koenigsberg - TILZIT
On Forums: 12 years 5 months
Thanks: 339001 time(s)
Russian Federation


Power/Heavy Metal


Thanks:
(1) oldvarg,
Go to the top of the page
  Insert nick Quick quote
+Quote Post
post Jul 10 2018, 11:46:08
Post #3

Правь статус, ####!111
**************
Group: Металариец
Posts: 14,946
Releases: 10243
From: Г.Харьков
On Forums: 6 years 6 months
Thanks: 168955 time(s)
Unknown


Cloud Mail 320
Register


Thanks:
Go to the top of the page
  Insert nick Quick quote
+Quote Post

Reply to this topicStart new topic
1 User(s) are reading this topic (1 Guests and 0 Anonymous Users)
0 Members:

 



- Lo-Fi Version Support form
Copyrights and abuse reports form
Time is now: 16th November 2018 - 02:46:57