Welcome Guest ( Log In | Register )

> И неформату есть предел.

Рэп/хип-хоп/шансон/поп удаляются. Для них есть свои порталы.

> Genesis - Trespass (1970), Progressive Rock (D9)
post Jul 9 2018, 21:00:07
Post #1


**********
Group: Металариец
Posts: 1,180
Releases: 186
From: Подмосковье
On Forums: 9 years 2 months
Thanks: 2891 time(s)
Russian Federation


(IMG:http://metalarea.org/images/audiocovers/2018_Jul/acov_tid308028_thumb.jpg)

*Artist: Genesis
*Album: Trespass
*Year: 1970
*Genre: Progressive Rock
*Country: United Kingdom (IMG:http://metalarea.org/forum/style_images/flags/United%20Kingdom.png)
*Format: mp3@CBR320kbps
*Size: 97MB

Tracklist:
1. Looking For Someone 7:06
2. White Mountain 6:42
3. Visions Of Angels 6:50
4. Stagnation 8:48
5. Dusk 4:13
6. The Knife 8:56
******************************
Total playing time: 42:35

(IMG:http://metalarea.org/images/youtube.png)

Extended info
Line-up / Musicians
- Peter Gabriel / lead vocals, flute, accordion, tambourine, bass drum
- Anthony Phillips / acoustic 12-string & lead electric guitars, dulcimer, backing vocals
- Anthony Banks / organ, piano, Mellotron, guitar, backing vocals
- Michael Rutherford / bass, nylon & acoustic 12-string guitars, cello, backing vocals
- John Mayhew / drums, percussion, backing vocals


Technical info
(IMG:http://metalarea.org/images/spectrogram/2018_Jul/31aa8be7c8cd22823f0eb545ee77632b.png)
Input File: 03 Visions Of Angels.mp3
Channels : 2
Sample Rate : 44100
Precision : 16-bit
Duration : 00:06:51.90 = 18164702 samples = 30892.4 CDDA sectors
File Size : 16.5M
Bit Rate : 320k
Sample Encoding: MPEG audio (layer I, II or III)
Comments :
Title=Visions Of Angels
Artist=Genesis
Album=Trespass
Tracknumber=3/6
Year=1970
Genre=Progressive Rock



Register


Thanks:
Go to the top of the page
  Insert nick Quick quote
+Quote Post
 
Start new topic
Replies (1 - 2)
post Jul 10 2018, 12:47:05
Post #2


**********
Group: Металариец
Posts: 1,180
Releases: 186
From: Подмосковье
On Forums: 9 years 2 months
Thanks: 2891 time(s)
Russian Federation


2007 Remaster + covers
320
Register


Go to the top of the page
  Insert nick Quick quote
+Quote Post
post Jul 17 2018, 21:09:23
Post #3

Семь Литров
*******
Group: Металариец
Posts: 729
Releases: 0
From: Харьков
On Forums: 9 years 3 weeks
Thanks: 235 time(s)
Ukraine


Интересная пластинка со своей атмосферой, не похожей на последующие работы. Не в последнюю очередь из-за отсутствия Хэкетта с Коллинзом в составе, конечно.
Go to the top of the page
  Insert nick Quick quote
+Quote Post

Reply to this topicStart new topic
2 User(s) are reading this topic (2 Guests and 0 Anonymous Users)
0 Members:

 



- Lo-Fi Version Support form
Copyrights and abuse reports form
Time is now: 18th October 2018 - 02:30:17